  0
SECTION
  2
HEADER
  9
$ACADVER
  1
AC1021
  9
$ACADMAINTVER
 70
    25
  9
$DWGCODEPAGE
  3
ANSI_1252
  9
$LASTSAVEDBY
  1
nishant.babu
  9
$INSBASE
 10
1433.910643511401
 20
708.6538752652085
 30
0.0
  9
$EXTMIN
 10
1890.534768468752
 20
708.8663932532569
 30
-0.0015258207003583
  9
$EXTMAX
 10
2087.167081334212
 20
847.4552263136358
 30
0.0000000349246037
  9
$LIMMIN
 10
-67.83102903228339
 20
-24.21799999999068
  9
$LIMMAX
 10
10.16897096771662
 20
31.18200000000932
  9
$ORTHOMODE
 70
     0
  9
$REGENMODE
 70
     1
  9
$FILLMODE
 70
     1
  9
$QTEXTMODE
 70
     0
  9
$MIRRTEXT
 70
     0
  9
$LTSCALE
 40
1.0
  9
$ATTMODE
 70
     1
  9
$TEXTSIZE
 40
3.5
  9
$TRACEWID
 40
0.5
  9
$TEXTSTYLE
  7
STANDARD
  9
$CLAYER
  8
0
  9
$CELTYPE
  6
ByLayer
  9
$CECOLOR
 62
   255
  9
$CELTSCALE
 40
1.0
  9
$DISPSILH
 70
     0
  9
$DIMSCALE
 40
2.0
  9
$DIMASZ
 40
0.7000000000000002
  9
$DIMEXO
 40
0.0
  9
$DIMDLI
 40
7.0
  9
$DIMRND
 40
0.0
  9
$DIMDLE
 40
0.0
  9
$DIMEXE
 40
0.2
  9
$DIMTP
 40
0.0
  9
$DIMTM
 40
0.0
  9
$DIMTXT
 40
0.7000000000000002
  9
$DIMCEN
 40
0.0
  9
$DIMTSZ
 40
0.0
  9
$DIMTOL
 70
     0
  9
$DIMLIM
 70
     0
  9
$DIMTIH
 70
     0
  9
$DIMTOH
 70
     0
  9
$DIMSE1
 70
     0
  9
$DIMSE2
 70
     0
  9
$DIMTAD
 70
     1
  9
$DIMZIN
 70
     9
  9
$DIMBLK
  1

  9
$DIMASO
 70
     1
  9
$DIMSHO
 70
     1
  9
$DIMPOST
  1

  9
$DIMAPOST
  1

  9
$DIMALT
 70
     0
  9
$DIMALTD
 70
     2
  9
$DIMALTF
 40
25.4
  9
$DIMLFAC
 40
1.0
  9
$DIMTOFL
 70
     0
  9
$DIMTVP
 40
0.0
  9
$DIMTIX
 70
     0
  9
$DIMSOXD
 70
     0
  9
$DIMSAH
 70
     0
  9
$DIMBLK1
  1

  9
$DIMBLK2
  1

  9
$DIMSTYLE
  2
DMST_1
  9
$DIMCLRD
 70
     2
  9
$DIMCLRE
 70
     2
  9
$DIMCLRT
 70
     3
  9
$DIMTFAC
 40
1.0
  9
$DIMGAP
 40
0.2
  9
$DIMJUST
 70
     0
  9
$DIMSD1
 70
     0
  9
$DIMSD2
 70
     0
  9
$DIMTOLJ
 70
     1
  9
$DIMTZIN
 70
     0
  9
$DIMALTZ
 70
     0
  9
$DIMALTTZ
 70
     0
  9
$DIMUPT
 70
     0
  9
$DIMDEC
 70
     4
  9
$DIMTDEC
 70
     4
  9
$DIMALTU
 70
     2
  9
$DIMALTTD
 70
     2
  9
$DIMTXSTY
  7
STANDARD
  9
$DIMAUNIT
 70
     0
  9
$DIMADEC
 70
     0
  9
$DIMALTRND
 40
0.0
  9
$DIMAZIN
 70
     0
  9
$DIMDSEP
 70
    46
  9
$DIMATFIT
 70
     3
  9
$DIMFRAC
 70
     0
  9
$DIMLDRBLK
  1

  9
$DIMLUNIT
 70
     2
  9
$DIMLWD
 70
    -2
  9
$DIMLWE
 70
    -2
  9
$DIMTMOVE
 70
     2
  9
$DIMFXL
 40
1.0
  9
$DIMFXLON
 70
     0
  9
$DIMJOGANG
 40
0.7853981633974483
  9
$DIMTFILL
 70
     0
  9
$DIMTFILLCLR
 70
     0
  9
$DIMARCSYM
 70
     0
  9
$DIMLTYPE
  6

  9
$DIMLTEX1
  6

  9
$DIMLTEX2
  6

  9
$LUNITS
 70
     2
  9
$LUPREC
 70
     4
  9
$SKETCHINC
 40
0.1
  9
$FILLETRAD
 40
1.0
  9
$AUNITS
 70
     0
  9
$AUPREC
 70
     0
  9
$MENU
  1
ACAD
  9
$ELEVATION
 40
0.0
  9
$PELEVATION
 40
0.0
  9
$THICKNESS
 40
0.0
  9
$LIMCHECK
 70
     0
  9
$CHAMFERA
 40
0.0
  9
$CHAMFERB
 40
0.0
  9
$CHAMFERC
 40
0.0
  9
$CHAMFERD
 40
0.0
  9
$SKPOLY
 70
     0
  9
$TDCREATE
 40
2454511.421038577
  9
$TDUCREATE
 40
2454511.191871910
  9
$TDUPDATE
 40
2456570.714701632
  9
$TDUUPDATE
 40
2456570.485534965
  9
$TDINDWG
 40
1.7742188773
  9
$TDUSRTIMER
 40
1.7742188773
  9
$USRTIMER
 70
     1
  9
$ANGBASE
 50
0.0
  9
$ANGDIR
 70
     0
  9
$PDMODE
 70
     0
  9
$PDSIZE
 40
0.0
  9
$PLINEWID
 40
0.0
  9
$SPLFRAME
 70
     0
  9
$SPLINETYPE
 70
     6
  9
$SPLINESEGS
 70
     8
  9
$HANDSEED
  5
20BC
  9
$SURFTAB1
 70
     6
  9
$SURFTAB2
 70
     6
  9
$SURFTYPE
 70
     6
  9
$SURFU
 70
     6
  9
$SURFV
 70
     6
  9
$UCSBASE
  2

  9
$UCSNAME
  2

  9
$UCSORG
 10
0.0
 20
0.0
 30
0.0
  9
$UCSXDIR
 10
1.0
 20
0.0
 30
0.0
  9
$UCSYDIR
 10
0.0
 20
1.0
 30
0.0
  9
$UCSORTHOREF
  2

  9
$UCSORTHOVIEW
 70
     0
  9
$UCSORGTOP
 10
0.0
 20
0.0
 30
0.0
  9
$UCSORGBOTTOM
 10
0.0
 20
0.0
 30
0.0
  9
$UCSORGLEFT
 10
0.0
 20
0.0
 30
0.0
  9
$UCSORGRIGHT
 10
0.0
 20
0.0
 30
0.0
  9
$UCSORGFRONT
 10
0.0
 20
0.0
 30
0.0
  9
$UCSORGBACK
 10
0.0
 20
0.0
 30
0.0
  9
$PUCSBASE
  2

  9
$PUCSNAME
  2

  9
$PUCSORG
 10
0.0
 20
0.0
 30
0.0
  9
$PUCSXDIR
 10
1.0
 20
0.0
 30
0.0
  9
$PUCSYDIR
 10
0.0
 20
1.0
 30
0.0
  9
$PUCSORTHOREF
  2

  9
$PUCSORTHOVIEW
 70
     0
  9
$PUCSORGTOP
 10
0.0
 20
0.0
 30
0.0
  9
$PUCSORGBOTTOM
 10
0.0
 20
0.0
 30
0.0
  9
$PUCSORGLEFT
 10
0.0
 20
0.0
 30
0.0
  9
$PUCSORGRIGHT
 10
0.0
 20
0.0
 30
0.0
  9
$PUCSORGFRONT
 10
0.0
 20
0.0
 30
0.0
  9
$PUCSORGBACK
 10
0.0
 20
0.0
 30
0.0
  9
$USERI1
 70
     0
  9
$USERI2
 70
     0
  9
$USERI3
 70
     0
  9
$USERI4
 70
     0
  9
$USERI5
 70
     0
  9
$USERR1
 40
0.0
  9
$USERR2
 40
0.0
  9
$USERR3
 40
0.0
  9
$USERR4
 40
0.0
  9
$USERR5
 40
0.0
  9
$WORLDVIEW
 70
     1
  9
$SHADEDGE
 70
     3
  9
$SHADEDIF
 70
    70
  9
$TILEMODE
 70
     1
  9
$MAXACTVP
 70
    64
  9
$PINSBASE
 10
0.0
 20
0.0
 30
0.0
  9
$PLIMCHECK
 70
     0
  9
$PEXTMIN
 10
1.000000000000000E+20
 20
1.000000000000000E+20
 30
1.000000000000000E+20
  9
$PEXTMAX
 10
-1.000000000000000E+20
 20
-1.000000000000000E+20
 30
-1.000000000000000E+20
  9
$PLIMMIN
 10
0.0
 20
0.0
  9
$PLIMMAX
 10
12.0
 20
9.0
  9
$UNITMODE
 70
     0
  9
$VISRETAIN
 70
     1
  9
$PLINEGEN
 70
     0
  9
$PSLTSCALE
 70
     1
  9
$TREEDEPTH
 70
  3020
  9
$CMLSTYLE
  2
Standard
  9
$CMLJUST
 70
     0
  9
$CMLSCALE
 40
1.0
  9
$PROXYGRAPHICS
 70
     1
  9
$MEASUREMENT
 70
     0
  9
$CELWEIGHT
370
    -1
  9
$ENDCAPS
280
     0
  9
$JOINSTYLE
280
     0
  9
$LWDISPLAY
290
     0
  9
$INSUNITS
 70
     4
  9
$HYPERLINKBASE
  1

  9
$STYLESHEET
  1
SSG1.ctb
  9
$XEDIT
290
     1
  9
$CEPSNTYPE
380
     0
  9
$PSTYLEMODE
290
     1
  9
$FINGERPRINTGUID
  2
{B669AEE1-29B9-4106-9BFA-99D190769082}
  9
$VERSIONGUID
  2
{4C343E13-C5BC-4A81-BD2C-A226045F73B6}
  9
$EXTNAMES
290
     1
  9
$PSVPSCALE
 40
0.0
  9
$OLESTARTUP
290
     0
  9
$SORTENTS
280
   127
  9
$INDEXCTL
280
     0
  9
$HIDETEXT
280
     1
  9
$XCLIPFRAME
290
     0
  9
$HALOGAP
280
     0
  9
$OBSCOLOR
 70
   257
  9
$OBSLTYPE
280
     0
  9
$INTERSECTIONDISPLAY
280
     0
  9
$INTERSECTIONCOLOR
 70
   257
  9
$DIMASSOC
280
     1
  9
$PROJECTNAME
  1

  9
$CAMERADISPLAY
290
     0
  9
$LENSLENGTH
 40
50.0
  9
$CAMERAHEIGHT
 40
0.0
  9
$STEPSPERSEC
 40
2.0
  9
$STEPSIZE
 40
6.0
  9
$3DDWFPREC
 40
2.0
  9
$PSOLWIDTH
 40
0.25
  9
$PSOLHEIGHT
 40
4.0
  9
$LOFTANG1
 40
1.570796326794896
  9
$LOFTANG2
 40
1.570796326794896
  9
$LOFTMAG1
 40
0.0
  9
$LOFTMAG2
 40
0.0
  9
$LOFTPARAM
 70
     7
  9
$LOFTNORMALS
280
     1
  9
$LATITUDE
 40
37.795
  9
$LONGITUDE
 40
-122.394
  9
$NORTHDIRECTION
 40
0.0
  9
$TIMEZONE
 70
 -8000
  9
$LIGHTGLYPHDISPLAY
280
     1
  9
$TILEMODELIGHTSYNCH
280
     1
  9
$CMATERIAL
347
37
  9
$SOLIDHIST
280
     1
  9
$SHOWHIST
280
     1
  9
$DWFFRAME
280
     2
  9
$DGNFRAME
280
     0
  9
$REALWORLDSCALE
290
     1
  9
$INTERFERECOLOR
 62
     1
  9
$INTERFEREOBJVS
345
4D
  9
$INTERFEREVPVS
346
4E
  9
$CSHADOW
280
     0
  9
$SHADOWPLANELOCATION
 40
0.0
  0
ENDSEC
  0
SECTION
  2
CLASSES
  0
CLASS
  1
ACDBDICTIONARYWDFLT
  2
AcDbDictionaryWithDefault
  3
ObjectDBX Classes
 90
        0
 91
        1
280
     0
281
     0
  0
CLASS
  1
MATERIAL
  2
AcDbMaterial
  3
ObjectDBX Classes
 90
     1153
 91
        3
280
     0
281
     0
  0
CLASS
  1
VISUALSTYLE
  2
AcDbVisualStyle
  3
ObjectDBX Classes
 90
     4095
 91
       19
280
     0
281
     0
  0
CLASS
  1
SCALE
  2
AcDbScale
  3
ObjectDBX Classes
 90
     1153
 91
       33
280
     0
281
     0
  0
CLASS
  1
TABLESTYLE
  2
AcDbTableStyle
  3
ObjectDBX Classes
 90
     4095
 91
        1
280
     0
281
     0
  0
CLASS
  1
MLEADERSTYLE
  2
AcDbMLeaderStyle
  3
ACDB_MLEADERSTYLE_CLASS
 90
     4095
 91
        1
280
     0
281
     0
  0
CLASS
  1
CELLSTYLEMAP
  2
AcDbCellStyleMap
  3
ObjectDBX Classes
 90
     1152
 91
        6
280
     0
281
     0
  0
CLASS
  1
DICTIONARYVAR
  2
AcDbDictionaryVar
  3
ObjectDBX Classes
 90
        0
 91
        9
280
     0
281
     0
  0
CLASS
  1
ACAD_EVALUATION_GRAPH
  2
AcDbEvalGraph
  3
ObjectDBX Classes
 90
     1153
 91
        1
280
     0
281
     0
  0
CLASS
  1
ACAECUSTOBJ
  2
AcAeEditorObj
  3
AcAeEditorObj
 90
     1024
 91
        0
280
     1
281
     0
  0
CLASS
  1
SORTENTSTABLE
  2
AcDbSortentsTable
  3
ObjectDBX Classes
 90
        0
 91
       10
280
     0
281
     0
  0
CLASS
  1
ACDB_DYNAMICBLOCKPURGEPREVENTER_VERSION
  2
AcDbDynamicBlockPurgePreventer
  3
ObjectDBX Classes
 90
     1153
 91
        1
280
     0
281
     0
  0
CLASS
  1
ACDB_BLOCKREPRESENTATION_DATA
  2
AcDbBlockRepresentationData
  3
ObjectDBX Classes
 90
     1153
 91
        0
280
     0
281
     0
  0
CLASS
  1
SOLID_BACKGROUND
  2
AcDbSolidBackground
  3
SCENEOE
 90
     4095
 91
        0
280
     0
281
     0
  0
CLASS
  1
NPOCOLLECTION
  2
AcDbImpNonPersistentObjectsCollection
  3
ObjectDBX Classes
 90
     1153
 91
        0
280
     0
281
     0
  0
CLASS
  1
BREAKDATA
  2
AcDbBreakData
  3
ObjectDBX Classes
 90
     1024
 91
        3
280
     0
281
     0
  0
ENDSEC
  0
SECTION
  2
TABLES
  0
TABLE
  2
VPORT
  5
28
102
{ACAD_XDICTIONARY
360
2C
102
}
330
0
100
AcDbSymbolTable
 70
     1
  0
VPORT
  5
29
330
28
100
AcDbSymbolTableRecord
100
AcDbViewportTableRecord
  2
*Active
 70
     0
 10
0.0
 20
0.0
 11
1.0
 21
1.0
 12
1994.170849287381
 22
771.76460375908
 13
0.0
 23
0.0
 14
1.0
 24
1.0
 15
0.0
 25
0.0
 16
0.0
 26
0.0
 36
1.0
 17
0.0
 27
0.0
 37
0.0
 40
159.6224590514645
 41
2.006430868167202
 42
50.0
 43
0.0
 44
0.0
 50
0.0
 51
0.0
 71
     0
 72
 20000
 73
     1
 74
     1
 75
     0
 76
     0
 77
     0
 78
     0
281
     0
 65
     1
110
0.0
120
0.0
130
0.0
111
1.0
121
0.0
131
0.0
112
0.0
122
1.0
132
0.0
 79
     0
146
0.0
348
2A
 60
     3
 61
     5
292
     1
282
     1
141
0.0
142
0.0
 63
   250
421
  3355443
  0
ENDTAB
  0
TABLE
  2
LTYPE
  5
23
330
0
100
AcDbSymbolTable
 70
     2
  0
LTYPE
  5
24
330
23
100
AcDbSymbolTableRecord
100
AcDbLinetypeTableRecord
  2
ByBlock
 70
     0
  3

 72
    65
 73
     0
 40
0.0
  0
LTYPE
  5
25
330
23
100
AcDbSymbolTableRecord
100
AcDbLinetypeTableRecord
  2
ByLayer
 70
     0
  3

 72
    65
 73
     0
 40
0.0
  0
LTYPE
  5
15
330
23
100
AcDbSymbolTableRecord
100
AcDbLinetypeTableRecord
  2
CONTINUOUS
 70
     0
  3
Solid line
 72
    65
 73
     0
 40
0.0
  0
LTYPE
  5
72
330
23
100
AcDbSymbolTableRecord
100
AcDbLinetypeTableRecord
  2
CENTER
 70
     0
  3
____ _ ____ _
 72
    65
 73
     4
 40
4.105263157894738
 49
2.565789473684211
 74
     0
 49
-0.5131578947368423
 74
     0
 49
0.5131578947368423
 74
     0
 49
-0.5131578947368423
 74
     0
  0
ENDTAB
  0
TABLE
  2
LAYER
  5
1E
102
{ACAD_XDICTIONARY
360
1F77
102
}
330
0
100
AcDbSymbolTable
 70
     6
  0
LAYER
  5
6
102
{ACAD_XDICTIONARY
360
7
102
}
330
1E
100
AcDbSymbolTableRecord
100
AcDbLayerTableRecord
  2
0
 70
     0
 62
     7
  6
CONTINUOUS
370
    -3
390
9
347
C
  0
LAYER
  5
DA
102
{ACAD_XDICTIONARY
360
DB
102
}
330
1E
100
AcDbSymbolTableRecord
100
AcDbLayerTableRecord
  2
1
 70
     0
 62
     7
  6
CONTINUOUS
370
    -3
390
9
347
C
  0
LAYER
  5
125
330
1E
100
AcDbSymbolTableRecord
100
AcDbLayerTableRecord
  2
Defpoints
 70
     0
 62
     7
  6
CONTINUOUS
290
     0
370
    -3
390
9
347
C
  0
LAYER
  5
10F
330
1E
100
AcDbSymbolTableRecord
100
AcDbLayerTableRecord
  2
Dark hatch1
 70
     0
 62
     3
  6
CONTINUOUS
370
    25
390
9
347
C
1001
AcAecLayerStandard
1000

1000

  0
LAYER
  5
1F5E
330
1E
100
AcDbSymbolTableRecord
100
AcDbLayerTableRecord
  2
DEFAULT_1
 70
     0
 62
     7
  6
CENTER
370
    -3
390
9
347
C
  0
LAYER
  5
1F5F
330
1E
100
AcDbSymbolTableRecord
100
AcDbLayerTableRecord
  2
02___PRT_ALL_AXES
 70
     0
 62
     7
  6
CONTINUOUS
370
    -3
390
9
347
C
  0
ENDTAB
  0
TABLE
  2
STYLE
  5
1F
330
0
100
AcDbSymbolTable
 70
     6
  0
STYLE
  5
20
330
1F
100
AcDbSymbolTableRecord
100
AcDbTextStyleTableRecord
  2
STANDARD
 70
     0
 40
0.0
 41
1.0
 50
0.0
 71
     0
 42
3.5
  3
isocpeur.ttf
  4

1001
ACAD
1000
ISOCPEUR
1071
       34
  0
STYLE
  5
A9
330
1F
100
AcDbSymbolTableRecord
100
AcDbTextStyleTableRecord
  2
SLDTEXTSTYLE0
 70
     0
 40
0.0
 41
0.605
 50
0.0
 71
     0
 42
0.0
  3
TXT
  4

  0
STYLE
  5
111
330
1F
100
AcDbSymbolTableRecord
100
AcDbTextStyleTableRecord
  2
romans
 70
     0
 40
0.0
 41
1.0
 50
0.0
 71
     0
 42
2.5
  3
isocpeur.ttf
  4

1001
ACAD
1000
ISOCPEUR
1071
       34
  0
STYLE
  5
1743
330
1F
100
AcDbSymbolTableRecord
100
AcDbTextStyleTableRecord
  2
NEW
 70
     0
 40
0.0
 41
1.0
 50
0.0
 71
     0
 42
0.2
  3
arial.ttf
  4

1001
ACAD
1000
Arial
1071
       34
  0
STYLE
  5
1F60
330
1F
100
AcDbSymbolTableRecord
100
AcDbTextStyleTableRecord
  2
style1
 70
     0
 40
0.0
 41
1.0
 50
0.0
 71
     0
 42
0.2
  3
isocpeur.ttf
  4

1001
ACAD
1000
ISOCPEUR
1071
       34
  0
ENDTAB
  0
TABLE
  2
VIEW
  5
26
330
0
100
AcDbSymbolTable
 70
     0
  0
ENDTAB
  0
TABLE
  2
UCS
  5
27
330
0
100
AcDbSymbolTable
 70
     0
  0
ENDTAB
  0
TABLE
  2
APPID
  5
2D
330
0
100
AcDbSymbolTable
 70
    14
  0
APPID
  5
21
330
2D
100
AcDbSymbolTableRecord
100
AcDbRegAppTableRecord
  2
ACAD
 70
     0
  0
APPID
  5
AA
330
2D
100
AcDbSymbolTableRecord
100
AcDbRegAppTableRecord
  2
AcDbBlockRepETag
 70
     0
  0
APPID
  5
19
330
2D
100
AcDbSymbolTableRecord
100
AcDbRegAppTableRecord
  2
ACAD_PSEXT
 70
     0
  0
APPID
  5
30
330
2D
100
AcDbSymbolTableRecord
100
AcDbRegAppTableRecord
  2
ACAD_DSTYLE_DIMJAG
 70
     0
  0
APPID
  5
31
330
2D
100
AcDbSymbolTableRecord
100
AcDbRegAppTableRecord
  2
ACAD_DSTYLE_DIMTALN
 70
     0
  0
APPID
  5
110
330
2D
100
AcDbSymbolTableRecord
100
AcDbRegAppTableRecord
  2
AcAecLayerStandard
 70
     0
  0
APPID
  5
1E3
330
2D
100
AcDbSymbolTableRecord
100
AcDbRegAppTableRecord
  2
ACAD_MLEADERVER
 70
     0
  0
APPID
  5
496
330
2D
100
AcDbSymbolTableRecord
100
AcDbRegAppTableRecord
  2
ACAUTHENVIRON
 70
     0
  0
APPID
  5
497
330
2D
100
AcDbSymbolTableRecord
100
AcDbRegAppTableRecord
  2
AcDbDynamicBlockGUID
 70
     0
  0
APPID
  5
645
330
2D
100
AcDbSymbolTableRecord
100
AcDbRegAppTableRecord
  2
AcDbDynamicBlockTrueName
 70
     0
  0
APPID
  5
F4B
330
2D
100
AcDbSymbolTableRecord
100
AcDbRegAppTableRecord
  2
ACAD_EXEMPT_FROM_CAD_STANDARDS
 70
     0
  0
APPID
  5
1310
330
2D
100
AcDbSymbolTableRecord
100
AcDbRegAppTableRecord
  2
ACAD_DSTYLE_DIMRADIAL_EXTENSION
 70
     0
  0
APPID
  5
1F6C
330
2D
100
AcDbSymbolTableRecord
100
AcDbRegAppTableRecord
  2
DCO15
 70
     0
  0
APPID
  5
1F6D
330
2D
100
AcDbSymbolTableRecord
100
AcDbRegAppTableRecord
  2
AcadAnnotative
 70
     0
  0
ENDTAB
  0
TABLE
  2
DIMSTYLE
  5
2E
330
0
100
AcDbSymbolTable
 70
    15
100
AcDbDimStyleTable
 71
     2
340
2F
340
32
  0
DIMSTYLE
105
32
330
2E
100
AcDbSymbolTableRecord
100
AcDbDimStyleTableRecord
  2
Standard
 70
     0
340
20
  0
DIMSTYLE
105
2F
102
{ACAD_REACTORS
330
1A75
330
1A8D
330
1A8E
330
1A00
330
1A01
330
1A02
330
1A0A
330
1A0B
330
1A0D
330
1A18
330
1A1A
330
1A1B
330
1A1C
330
1A1D
102
}
330
2E
100
AcDbSymbolTableRecord
100
AcDbDimStyleTableRecord
  2
DMST_1
 70
     0
 41
0.7000000000000002
 42
0.0
 43
7.0
 44
0.2
 73
     0
 74
     0
 77
     1
 78
     9
140
0.7000000000000002
141
0.0
147
0.2
176
     2
177
     2
178
     3
279
     2
340
20
1001
ACAD_DSTYLE_DIMJAG
1070
   388
1040
1.5
1001
ACAD_DSTYLE_DIMTALN
1070
   392
1070
     0
  0
DIMSTYLE
105
1744
330
2E
100
AcDbSymbolTableRecord
100
AcDbDimStyleTableRecord
  2
SLDDIMSTYLE1
 70
     0
 41
2.5
 42
0.5
 43
0.5
 44
1.0
 73
     0
 74
     0
 77
     1
 78
    12
140
2.5
141
0.0
144
0.5
147
1.0
176
     2
177
     2
178
     3
279
     2
284
    12
289
     0
340
20
1001
ACAD_DSTYLE_DIMJAG
1070
   388
1040
1.5
1001
ACAD_DSTYLE_DIMTALN
1070
   392
1070
     0
  0
DIMSTYLE
105
1F61
330
2E
100
AcDbSymbolTableRecord
100
AcDbDimStyleTableRecord
  2
DMST_2
 70
     0
 41
0.7000000000000002
 42
0.0
 43
7.0
 44
0.2
 71
     1
 73
     0
 74
     0
 77
     1
 78
     9
140
0.7000000000000002
141
0.0
146
0.7
176
     2
177
     2
178
     3
279
     2
340
20
  0
DIMSTYLE
105
1F62
330
2E
100
AcDbSymbolTableRecord
100
AcDbDimStyleTableRecord
  2
DIMSTYLE_1
 70
     0
 41
4.0
 48
0.1
 71
     1
 73
     0
 74
     0
 77
     1
 78
     8
140
2.799999999999999
144
0.6666666667
146
0.75
178
     5
271
     2
272
     2
284
     8
340
20
341
1E41
342
1E41
343
1E41
344
1E41
  0
DIMSTYLE
105
1F63
330
2E
100
AcDbSymbolTableRecord
100
AcDbDimStyleTableRecord
  2
DIMSTYLE_2
 70
     0
 41
4.0
 47
0.01
 48
0.01
 73
     0
 74
     0
 77
     1
 78
     8
140
2.799999999999999
144
0.6666666667
178
     5
271
     2
272
     2
284
     8
340
20
341
1E41
342
1E41
343
1E41
344
1E41
  0
DIMSTYLE
105
1F64
330
2E
100
AcDbSymbolTableRecord
100
AcDbDimStyleTableRecord
  2
DIMSTYLE_3
 70
     0
 41
4.0
 47
0.2
 48
0.2
 71
     1
 73
     0
 74
     0
 77
     1
 78
     8
140
2.799999999999999
144
0.6666666667
178
     5
271
     2
272
     2
284
     8
340
20
341
1E41
342
1E41
343
1E41
344
1E41
  0
DIMSTYLE
105
1F65
330
2E
100
AcDbSymbolTableRecord
100
AcDbDimStyleTableRecord
  2
DIMSTYLE_4
 70
     0
 41
4.0
 47
0.1
 48
0.1
 71
     1
 73
     0
 74
     0
 77
     1
 78
     8
140
2.799999999999999
144
0.6666666667
271
     1
272
     1
284
     8
340
20
341
1E41
342
1E41
343
1E41
344
1E41
  0
DIMSTYLE
105
1F66
330
2E
100
AcDbSymbolTableRecord
100
AcDbDimStyleTableRecord
  2
DIMSTYLE_7
 70
     0
 41
4.0
 73
     0
 74
     0
 77
     1
 78
     8
140
2.799999999999999
144
0.6666666667
178
     5
271
     0
272
     0
284
     8
340
20
341
1E41
342
1E41
343
1E41
344
1E41
  0
DIMSTYLE
105
1F67
330
2E
100
AcDbSymbolTableRecord
100
AcDbDimStyleTableRecord
  2
DIMSTYLE_8
 70
     0
 41
4.0
 47
0.3
 48
0.3
 71
     1
 73
     0
 74
     0
 77
     1
 78
     8
140
2.799999999999999
144
0.6666666667
178
     5
271
     2
272
     2
284
     8
340
20
341
1E41
342
1E41
343
1E41
344
1E41
  0
DIMSTYLE
105
1F68
330
2E
100
AcDbSymbolTableRecord
100
AcDbDimStyleTableRecord
  2
DIMSTYLE_9
 70
     0
 41
4.0
 48
0.1
 71
     1
 77
     1
 78
     8
140
2.799999999999999
144
0.6666666667
146
0.75
178
     5
271
     2
272
     2
284
     8
340
20
341
1E41
342
1E41
343
1E41
344
1E41
  0
DIMSTYLE
105
1F69
330
2E
100
AcDbSymbolTableRecord
100
AcDbDimStyleTableRecord
  2
DIMSTYLE_10
 70
     0
 41
4.0
 47
0.9
 48
0.9
 71
     1
 73
     0
 74
     0
 77
     1
 78
     8
140
2.799999999999999
144
0.6666666667
271
     2
272
     2
284
     8
340
20
341
1E41
342
1E41
343
1E41
344
1E41
  0
DIMSTYLE
105
1F6A
330
2E
100
AcDbSymbolTableRecord
100
AcDbDimStyleTableRecord
  2
DIMSTYLE_11
 70
     0
 41
4.0
 47
0.1
 48
0.1
 71
     1
 73
     0
 74
     0
 77
     1
 78
     8
140
2.799999999999999
144
0.6666666667
271
     2
272
     2
284
     8
340
20
341
1E41
342
1E41
343
1E41
344
1E41
  0
DIMSTYLE
105
1F6B
330
2E
100
AcDbSymbolTableRecord
100
AcDbDimStyleTableRecord
  2
DIMSTYLE_12
 70
     0
 41
4.0
 47
3.0
 48
3.0
 71
     1
 73
     0
 74
     0
 77
     1
 78
     8
140
2.799999999999999
144
0.6666666667
178
     5
271
     2
272
     2
284
     8
340
20
341
1E41
342
1E41
343
1E41
344
1E41
  0
ENDTAB
  0
TABLE
  2
BLOCK_RECORD
  5
1
330
0
100
AcDbSymbolTable
 70
    44
  0
BLOCK_RECORD
  5
2
102
{ACAD_XDICTIONARY
360
3
102
}
330
1
100
AcDbSymbolTableRecord
100
AcDbBlockTableRecord
  2
*Model_Space
340
17
 70
     0
280
     1
281
     0
  0
BLOCK_RECORD
  5
1A
330
1
100
AcDbSymbolTableRecord
100
AcDbBlockTableRecord
  2
*Paper_Space
340
1D
 70
     0
280
     1
281
     0
  0
BLOCK_RECORD
  5
EF2
330
1
100
AcDbSymbolTableRecord
100
AcDbBlockTableRecord
  2
_Oblique
340
0
102
{BLKREFS
331
14AC
331
14B6
331
1BC2
331
1BCC
102
}
 70
     0
280
     1
281
     0
  0
BLOCK_RECORD
  5
1254
102
{ACAD_XDICTIONARY
360
1C6F
102
}
330
1
100
AcDbSymbolTableRecord
100
AcDbBlockTableRecord
  2
A$C324D28BD
340
0
102
{BLKREFS
331
1A80
102
}
 70
     0
280
     1
281
     0
1001
AcDbDynamicBlockGUID
1000
{BB35747F-68B9-42E6-BA4A-8E79D156492C}
1001
AcDbBlockRepETag
1070
     1
1071
      155
  0
BLOCK_RECORD
  5
1778
102
{ACAD_XDICTIONARY
360
1779
102
}
330
1
100
AcDbSymbolTableRecord
100
AcDbBlockTableRecord
  2
*U16
340
0
 70
     0
280
     1
281
     0
1001
AcDbDynamicBlockTrueName
1000
A$C6E40112F
1001
AcDbDynamicBlockGUID
1000
{C7E3BF74-7DEE-4D7B-AF3E-313607523153}
  0
BLOCK_RECORD
  5
17A6
102
{ACAD_XDICTIONARY
360
17DA
102
}
330
1
100
AcDbSymbolTableRecord
100
AcDbBlockTableRecord
  2
A3(S11)
340
0
 70
     4
280
     1
281
     0
  0
BLOCK_RECORD
  5
1A92
330
1
100
AcDbSymbolTableRecord
100
AcDbBlockTableRecord
  2
*D18
340
0
 70
     0
280
     1
281
     0
  0
BLOCK_RECORD
  5
1AA0
330
1
100
AcDbSymbolTableRecord
100
AcDbBlockTableRecord
  2
*D19
340
0
 70
     0
280
     1
281
     0
  0
BLOCK_RECORD
  5
1AAC
330
1
100
AcDbSymbolTableRecord
100
AcDbBlockTableRecord
  2
*D20
340
0
 70
     0
280
     1
281
     0
  0
BLOCK_RECORD
  5
1AB9
330
1
100
AcDbSymbolTableRecord
100
AcDbBlockTableRecord
  2
*D21
340
0
 70
     0
280
     1
281
     0
  0
BLOCK_RECORD
  5
1AC5
330
1
100
AcDbSymbolTableRecord
100
AcDbBlockTableRecord
  2
*D22
340
0
 70
     0
280
     1
281
     0
  0
BLOCK_RECORD
  5
1AD1
330
1
100
AcDbSymbolTableRecord
100
AcDbBlockTableRecord
  2
*D23
340
0
 70
     0
280
     1
281
     0
  0
BLOCK_RECORD
  5
1ADD
330
1
100
AcDbSymbolTableRecord
100
AcDbBlockTableRecord
  2
*D24
340
0
 70
     0
280
     1
281
     0
  0
BLOCK_RECORD
  5
1AE9
330
1
100
AcDbSymbolTableRecord
100
AcDbBlockTableRecord
  2
*D25
340
0
 70
     0
280
     1
281
     0
  0
BLOCK_RECORD
  5
1AF6
330
1
100
AcDbSymbolTableRecord
100
AcDbBlockTableRecord
  2
*D26
340
0
 70
     0
280
     1
281
     0
  0
BLOCK_RECORD
  5
1B05
330
1
100
AcDbSymbolTableRecord
100
AcDbBlockTableRecord
  2
*D27
340
0
 70
     0
280
     1
281
     0
  0
BLOCK_RECORD
  5
1B12
330
1
100
AcDbSymbolTableRecord
100
AcDbBlockTableRecord
  2
*D28
340
0
 70
     0
280
     1
281
     0
  0
BLOCK_RECORD
  5
1B1E
330
1
100
AcDbSymbolTableRecord
100
AcDbBlockTableRecord
  2
*D29
340
0
 70
     0
280
     1
281
     0
  0
BLOCK_RECORD
  5
1B2A
330
1
100
AcDbSymbolTableRecord
100
AcDbBlockTableRecord
  2
*D30
340
0
 70
     0
280
     1
281
     0
  0
BLOCK_RECORD
  5
1B39
330
1
100
AcDbSymbolTableRecord
100
AcDbBlockTableRecord
  2
*D31
340
0
 70
     0
280
     1
281
     0
  0
BLOCK_RECORD
  5
1DB1
102
{ACAD_XDICTIONARY
360
1DB2
102
}
330
1
100
AcDbSymbolTableRecord
100
AcDbBlockTableRecord
  2
A$C08716F59
340
0
102
{BLKREFS
331
1E27
331
1FF9
102
}
 70
     4
280
     1
281
     0
  0
BLOCK_RECORD
  5
1DEC
102
{ACAD_XDICTIONARY
360
1DED
102
}
330
1
100
AcDbSymbolTableRecord
100
AcDbBlockTableRecord
  2
A$C058C21FF
340
0
 70
     4
280
     1
281
     0
  0
BLOCK_RECORD
  5
1E2F
330
1
100
AcDbSymbolTableRecord
100
AcDbBlockTableRecord
  2
_Dot
340
0
 70
     0
280
     1
281
     0
  0
BLOCK_RECORD
  5
1E34
102
{ACAD_XDICTIONARY
360
1E35
102
}
330
1
100
AcDbSymbolTableRecord
100
AcDbBlockTableRecord
  2
A$C53560A2D
340
0
102
{BLKREFS
331
1E3F
102
}
 70
     1
280
     1
281
     0
  0
BLOCK_RECORD
  5
1E3B
102
{ACAD_XDICTIONARY
360
1E3C
102
}
330
1
100
AcDbSymbolTableRecord
100
AcDbBlockTableRecord
  2
A$C25042B23
340
0
 70
     1
280
     1
281
     0
  0
BLOCK_RECORD
  5
1E41
330
1
100
AcDbSymbolTableRecord
100
AcDbBlockTableRecord
  2
_FILLED
340
0
102
{BLKREFS
331
1E4A
331
1E4B
331
1FC4
331
1FC5
102
}
 70
     0
280
     1
281
     0
  0
BLOCK_RECORD
  5
1E45
330
1
100
AcDbSymbolTableRecord
100
AcDbBlockTableRecord
  2
*D38
340
0
 70
     0
280
     1
281
     0
  0
BLOCK_RECORD
  5
1E51
102
{ACAD_XDICTIONARY
360
1E52
102
}
330
1
100
AcDbSymbolTableRecord
100
AcDbBlockTableRecord
  2
A$C274A2516
340
0
 70
     4
280
     1
281
     0
  0
BLOCK_RECORD
  5
1F37
102
{ACAD_XDICTIONARY
360
1F38
102
}
330
1
100
AcDbSymbolTableRecord
100
AcDbBlockTableRecord
  2
A$C217E344C
340
0
 70
     4
280
     1
281
     0
  0
BLOCK_RECORD
  5
1F79
102
{ACAD_XDICTIONARY
360
1FBB
102
}
330
1
100
AcDbSymbolTableRecord
100
AcDbBlockTableRecord
  2
new A3-S11
340
0
 70
     4
280
     1
281
     0
  0
ENDTAB
  0
ENDSEC
  0
SECTION
  2
BLOCKS
  0
BLOCK
  5
5
330
2
100
AcDbEntity
  8
0
100
AcDbBlockBegin
  2
*Model_Space
 70
     0
 10
0.0
 20
0.0
 30
0.0
  3
*Model_Space
  1

  0
ENDBLK
  5
16
330
2
100
AcDbEntity
  8
0
100
AcDbBlockEnd
  0
BLOCK
  5
1B
330
1A
100
AcDbEntity
 67
     1
  8
0
100
AcDbBlockBegin
  2
*Paper_Space
 70
     0
 10
0.0
 20
0.0
 30
0.0
  3
*Paper_Space
  1

  0
ENDBLK
  5
1C
330
1A
100
AcDbEntity
 67
     1
  8
0
100
AcDbBlockEnd
  0
BLOCK
  5
EF4
330
EF2
100
AcDbEntity
  8
0
100
AcDbBlockBegin
  2
_Oblique
 70
     0
 10
0.0
 20
0.0
 30
0.0
  3
_Oblique
  1

  0
LINE
  5
EF3
330
EF2
100
AcDbEntity
  8
0
  6
ByBlock
 62
     0
370
    -2
100
AcDbLine
 10
-0.5
 20
-0.5
 30
0.0
 11
0.5
 21
0.5
 31
0.0
  0
ENDBLK
  5
EF5
330
EF2
100
AcDbEntity
  8
0
100
AcDbBlockEnd
  0
BLOCK
  5
1256
330
1254
100
AcDbEntity
  8
0
100
AcDbBlockBegin
  2
A$C324D28BD
 70
     0
 10
0.0
 20
0.0
 30
0.0
  3
A$C324D28BD
  1

  0
LINE
  5
1BD4
330
1254
100
AcDbEntity
  8
1
 62
     3
100
AcDbLine
 10
2.5
 20
6.25
 30
0.0
 11
2.5
 21
4.75
 31
0.0
1001
AcDbBlockRepETag
1070
     1
1071
        0
1005
1BD4
  0
LINE
  5
1BD5
330
1254
100
AcDbEntity
  8
1
 62
     3
100
AcDbLine
 10
2.609999999999985
 20
5.390000000000014
 30
0.0
 11
2.5
 21
5.5
 31
0.0
1001
AcDbBlockRepETag
1070
     1
1071
        1
1005
1BD5
  0
LINE
  5
1BD6
330
1254
100
AcDbEntity
  8
1
 62
     3
100
AcDbLine
 10
2.389999999999986
 20
5.610000000000013
 30
0.0
 11
2.389999999999986
 21
6.140000000000014
 31
0.0
1001
AcDbBlockRepETag
1070
     1
1071
        2
1005
1BD6
  0
LINE
  5
1BD7
330
1254
100
AcDbEntity
  8
1
 62
     3
100
AcDbLine
 10
2.389999999999986
 20
4.860000000000013
 30
0.0
 11
2.389999999999986
 21
5.390000000000014
 31
0.0
1001
AcDbBlockRepETag
1070
     1
1071
        3
1005
1BD7
  0
LINE
  5
1BD8
330
1254
100
AcDbEntity
  8
1
 62
     3
100
AcDbLine
 10
2.609999999999985
 20
5.610000000000013
 30
0.0
 11
2.609999999999985
 21
6.140000000000014
 31
0.0
1001
AcDbBlockRepETag
1070
     1
1071
        4
1005
1BD8
  0
LINE
  5
1BD9
330
1254
100
AcDbEntity
  8
1
 62
     3
100
AcDbLine
 10
2.609999999999985
 20
4.860000000000013
 30
0.0
 11
2.609999999999985
 21
5.390000000000014
 31
0.0
1001
AcDbBlockRepETag
1070
     1
1071
        5
1005
1BD9
  0
LINE
  5
1BDA
330
1254
100
AcDbEntity
  8
1
 62
     3
100
AcDbLine
 10
2.389999999999986
 20
5.610000000000013
 30
0.0
 11
1.859999999999985
 21
5.610000000000013
 31
0.0
1001
AcDbBlockRepETag
1070
     1
1071
        6
1005
1BDA
  0
LINE
  5
1BDB
330
1254
100
AcDbEntity
  8
1
 62
     3
100
AcDbLine
 10
3.139999999999986
 20
5.610000000000013
 30
0.0
 11
2.609999999999985
 21
5.610000000000013
 31
0.0
1001
AcDbBlockRepETag
1070
     1
1071
        7
1005
1BDB
  0
LINE
  5
1BDC
330
1254
100
AcDbEntity
  8
1
 62
     3
100
AcDbLine
 10
3.25
 20
5.5
 30
0.0
 11
1.75
 21
5.5
 31
0.0
1001
AcDbBlockRepETag
1070
     1
1071
        8
1005
1BDC
  0
LINE
  5
1BDD
330
1254
100
AcDbEntity
  8
1
 62
     3
100
AcDbLine
 10
2.389999999999986
 20
5.390000000000014
 30
0.0
 11
1.859999999999985
 21
5.390000000000014
 31
0.0
1001
AcDbBlockRepETag
1070
     1
1071
        9
1005
1BDD
  0
LINE
  5
1BDE
330
1254
100
AcDbEntity
  8
1
 62
     3
100
AcDbLine
 10
3.139999999999986
 20
5.390000000000014
 30
0.0
 11
2.609999999999985
 21
5.390000000000014
 31
0.0
1001
AcDbBlockRepETag
1070
     1
1071
       10
1005
1BDE
  0
LINE
  5
1BDF
330
1254
100
AcDbEntity
  8
1
 62
     3
100
AcDbLine
 10
1.859999999999985
 20
5.610000000000013
 30
0.0
 11
1.75
 21
5.5
 31
0.0
1001
AcDbBlockRepETag
1070
     1
1071
       11
1005
1BDF
  0
LINE
  5
1BE0
330
1254
100
AcDbEntity
  8
1
 62
     3
100
AcDbLine
 10
3.25
 20
5.5
 30
0.0
 11
3.139999999999986
 21
5.390000000000014
 31
0.0
1001
AcDbBlockRepETag
1070
     1
1071
       12
1005
1BE0
  0
LINE
  5
1BE1
330
1254
100
AcDbEntity
  8
1
 62
     3
100
AcDbLine
 10
3.25
 20
5.5
 30
0.0
 11
3.139999999999986
 21
5.610000000000013
 31
0.0
1001
AcDbBlockRepETag
1070
     1
1071
       13
1005
1BE1
  0
LINE
  5
1BE2
330
1254
100
AcDbEntity
  8
1
 62
     3
100
AcDbLine
 10
2.5
 20
6.25
 30
0.0
 11
2.609999999999985
 21
6.140000000000014
 31
0.0
1001
AcDbBlockRepETag
1070
     1
1071
       14
1005
1BE2
  0
LINE
  5
1BE3
330
1254
100
AcDbEntity
  8
1
 62
     3
100
AcDbLine
 10
2.5
 20
6.25
 30
0.0
 11
2.389999999999986
 21
6.140000000000014
 31
0.0
1001
AcDbBlockRepETag
1070
     1
1071
       15
1005
1BE3
  0
LINE
  5
1BE4
330
1254
100
AcDbEntity
  8
1
 62
     3
100
AcDbLine
 10
1.859999999999985
 20
5.390000000000014
 30
0.0
 11
1.75
 21
5.5
 31
0.0
1001
AcDbBlockRepETag
1070
     1
1071
       16
1005
1BE4
  0
LINE
  5
1BE5
330
1254
100
AcDbEntity
  8
1
 62
     3
100
AcDbLine
 10
2.5
 20
4.75
 30
0.0
 11
2.389999999999986
 21
4.860000000000013
 31
0.0
1001
AcDbBlockRepETag
1070
     1
1071
       17
1005
1BE5
  0
LINE
  5
1BE6
330
1254
100
AcDbEntity
  8
1
 62
     3
100
AcDbLine
 10
2.609999999999985
 20
4.860000000000013
 30
0.0
 11
2.5
 21
4.75
 31
0.0
1001
AcDbBlockRepETag
1070
     1
1071
       18
1005
1BE6
  0
LINE
  5
1BE7
330
1254
100
AcDbEntity
  8
1
 62
     3
100
AcDbLine
 10
2.389999999999986
 20
5.390000000000014
 30
0.0
 11
2.5
 21
5.5
 31
0.0
1001
AcDbBlockRepETag
1070
     1
1071
       19
1005
1BE7
  0
LINE
  5
1BE8
330
1254
100
AcDbEntity
  8
1
 62
     3
100
AcDbLine
 10
2.5
 20
5.5
 30
0.0
 11
2.389999999999986
 21
5.610000000000013
 31
0.0
1001
AcDbBlockRepETag
1070
     1
1071
       20
1005
1BE8
  0
LINE
  5
1BE9
330
1254
100
AcDbEntity
  8
1
 62
     3
100
AcDbLine
 10
2.5
 20
5.5
 30
0.0
 11
2.609999999999985
 21
5.610000000000013
 31
0.0
1001
AcDbBlockRepETag
1070
     1
1071
       21
1005
1BE9
  0
LINE
  5
1BEA
330
1254
100
AcDbEntity
  8
1
 62
   255
100
AcDbLine
 10
-1.025000000000005
 20
-4.699999999999988
 30
0.0
 11
-1.025000000000005
 21
-5.300000000000011
 31
0.0
1001
AcDbBlockRepETag
1070
     1
1071
       22
1005
1BEA
  0
LINE
  5
1BEB
330
1254
100
AcDbEntity
  8
1
 62
   255
100
AcDbLine
 10
-1.025000000000005
 20
-5.300000000000011
 30
0.0
 11
1.024999999999977
 21
-5.300000000000011
 31
0.0
1001
AcDbBlockRepETag
1070
     1
1071
       23
1005
1BEB
  0
LINE
  5
1BEC
330
1254
100
AcDbEntity
  8
1
 62
   255
100
AcDbLine
 10
1.024999999999977
 20
-5.300000000000011
 30
0.0
 11
1.024999999999977
 21
-4.699999999999988
 31
0.0
1001
AcDbBlockRepETag
1070
     1
1071
       24
1005
1BEC
  0
LINE
  5
1BED
330
1254
100
AcDbEntity
  8
1
 62
   255
100
AcDbLine
 10
1.024999999999977
 20
-4.699999999999988
 30
0.0
 11
-1.025000000000005
 21
-4.699999999999988
 31
0.0
1001
AcDbBlockRepETag
1070
     1
1071
       25
1005
1BED
  0
LINE
  5
1BEE
330
1254
100
AcDbEntity
  8
1
 62
   255
100
AcDbLine
 10
-1.025000000000005
 20
5.300000000000011
 30
0.0
 11
-1.025000000000005
 21
4.699999999999988
 31
0.0
1001
AcDbBlockRepETag
1070
     1
1071
       26
1005
1BEE
  0
LINE
  5
1BEF
330
1254
100
AcDbEntity
  8
1
 62
   255
100
AcDbLine
 10
1.024999999999977
 20
5.300000000000011
 30
0.0
 11
-1.025000000000005
 21
5.300000000000011
 31
0.0
1001
AcDbBlockRepETag
1070
     1
1071
       27
1005
1BEF
  0
LINE
  5
1BF0
330
1254
100
AcDbEntity
  8
1
 62
   255
100
AcDbLine
 10
1.024999999999977
 20
4.699999999999988
 30
0.0
 11
1.024999999999977
 21
5.300000000000011
 31
0.0
1001
AcDbBlockRepETag
1070
     1
1071
       28
1005
1BF0
  0
LINE
  5
1BF1
330
1254
100
AcDbEntity
  8
1
 62
   255
100
AcDbLine
 10
-1.025000000000005
 20
4.699999999999988
 30
0.0
 11
1.024999999999977
 21
4.699999999999988
 31
0.0
1001
AcDbBlockRepETag
1070
     1
1071
       29
1005
1BF1
  0
LINE
  5
1BF2
330
1254
100
AcDbEntity
  8
1
  6
CENTER
 62
     2
 48
0.5
100
AcDbLine
 10
-1.224999999999937
 20
5.0
 30
0.0
 11
1.224999999999994
 21
5.0
 31
0.0
1001
AcDbBlockRepETag
1070
     1
1071
       30
1005
1BF2
  0
LINE
  5
1BF3
330
1254
100
AcDbEntity
  8
1
  6
CENTER
 62
     2
 48
0.5
100
AcDbLine
 10
1.224999999999994
 20
-5.0
 30
0.0
 11
-1.224999999999937
 21
-5.0
 31
0.0
1001
AcDbBlockRepETag
1070
     1
1071
       31
1005
1BF3
  0
LINE
  5
1BF4
330
1254
100
AcDbEntity
  8
1
 62
     2
100
AcDbLine
 10
-5.338580707115255
 20
-0.8802467066657868
 30
0.0
 11
-5.106655446518516
 21
-0.4785403717534962
 31
0.0
1001
AcDbBlockRepETag
1070
     1
1071
       32
1005
1BF4
  0
LINE
  5
1BF5
330
1254
100
AcDbEntity
  8
1
 62
     2
100
AcDbLine
 10
-4.943347798947655
 20
-0.5728260860391288
 30
0.0
 11
-5.175273059544423
 21
-0.9745324209515047
 31
0.0
1001
AcDbBlockRepETag
1070
     1
1071
       33
1005
1BF5
  0
LINE
  5
1BF6
330
1254
100
AcDbEntity
  8
1
 62
     2
100
AcDbLine
 10
-4.494407163140152
 20
0.2047619047618809
 30
0.0
 11
-4.142344143478027
 21
0.2047619047618809
 31
0.0
1001
AcDbBlockRepETag
1070
     1
1071
       34
1005
1BF6
  0
LINE
  5
1BF7
330
1254
100
AcDbEntity
  8
1
 62
     2
100
AcDbLine
 10
-4.494407163140152
 20
0.2047619047618809
 30
0.0
 11
-4.730845844808243
 21
-0.2047619047619094
 31
0.0
1001
AcDbBlockRepETag
1070
     1
1071
       35
1005
1BF7
  0
LINE
  5
1BF8
330
1254
100
AcDbEntity
  8
1
 62
     2
100
AcDbLine
 10
-4.948589374902525
 20
-0.2047619047619094
 30
0.0
 11
-5.30065239456465
 21
-0.2047619047619094
 31
0.0
1001
AcDbBlockRepETag
1070
     1
1071
       36
1005
1BF8
  0
LINE
  5
1BF9
330
1254
100
AcDbEntity
  8
1
 62
     2
100
AcDbLine
 10
-4.948589374902525
 20
-0.2047619047619094
 30
0.0
 11
-4.712150693234519
 21
0.2047619047618809
 31
0.0
1001
AcDbBlockRepETag
1070
     1
1071
       37
1005
1BF9
  0
LINE
  5
1BFA
330
1254
100
AcDbEntity
  8
1
 62
     2
100
AcDbLine
 10
-5.30065239456465
 20
0.2047619047618809
 30
0.0
 11
-4.712150693234519
 21
0.2047619047618809
 31
0.0
1001
AcDbBlockRepETag
1070
     1
1071
       38
1005
1BFA
  0
LINE
  5
1BFB
330
1254
100
AcDbEntity
  8
1
 62
     2
100
AcDbLine
 10
-4.104415830927422
 20
0.8802467066658721
 30
0.0
 11
-4.336341091524332
 21
0.4785403717533825
 31
0.0
1001
AcDbBlockRepETag
1070
     1
1071
       39
1005
1BFB
  0
LINE
  5
1BFC
330
1254
100
AcDbEntity
  8
1
 62
     2
100
AcDbLine
 10
-4.267723478498254
 20
0.9745324209515047
 30
0.0
 11
-4.499648739095022
 21
0.5728260860392141
 31
0.0
1001
AcDbBlockRepETag
1070
     1
1071
       40
1005
1BFC
  0
LINE
  5
1BFD
330
1254
100
AcDbEntity
  8
1
 62
     2
100
AcDbLine
 10
2.836887251786066
 20
-1.590791282573803
 30
0.0
 11
2.836887251786066
 21
-0.7907912825738208
 31
0.0
1001
AcDbBlockRepETag
1070
     1
1071
       41
1005
1BFD
  0
LINE
  5
1BFE
330
1254
100
AcDbEntity
  8
1
 62
     2
100
AcDbLine
 10
2.286887251786055
 20
-1.590791282573803
 30
0.0
 11
2.836887251786066
 21
-1.590791282573803
 31
0.0
1001
AcDbBlockRepETag
1070
     1
1071
       42
1005
1BFE
  0
LINE
  5
1BFF
330
1254
100
AcDbEntity
  8
1
 62
     2
100
AcDbLine
 10
2.286887251786055
 20
0.9592087174261791
 30
0.0
 11
2.286887251786055
 21
-1.590791282573803
 31
0.0
1001
AcDbBlockRepETag
1070
     1
1071
       43
1005
1BFF
  0
LINE
  5
1C00
330
1254
100
AcDbEntity
  8
1
 62
     2
100
AcDbLine
 10
2.836887251786066
 20
0.9592087174261791
 30
0.0
 11
2.286887251786055
 21
0.9592087174261791
 31
0.0
1001
AcDbBlockRepETag
1070
     1
1071
       44
1005
1C00
  0
LINE
  5
1C01
330
1254
100
AcDbEntity
  8
1
 62
     2
100
AcDbLine
 10
2.836887251786066
 20
0.7592087174261906
 30
0.0
 11
2.836887251786066
 21
0.9592087174261791
 31
0.0
1001
AcDbBlockRepETag
1070
     1
1071
       45
1005
1C01
  0
LINE
  5
1C02
330
1254
100
AcDbEntity
  8
1
 62
     2
100
AcDbLine
 10
2.074919034309971
 20
-0.8396760649737018
 30
0.0
 11
2.074919034309971
 21
0.4303258111031028
 31
0.0
1001
AcDbBlockRepETag
1070
     1
1071
       46
1005
1C02
  0
LINE
  5
1C03
330
1254
100
AcDbEntity
  8
1
 62
     2
100
AcDbLine
 10
2.136887251786077
 20
-0.9896760649737075
 30
0.0
 11
1.565111413174776
 21
-0.9896760649737075
 31
0.0
1001
AcDbBlockRepETag
1070
     1
1071
       47
1005
1C03
  0
LINE
  5
1C04
330
1254
100
AcDbEntity
  8
1
 62
     2
100
AcDbLine
 10
1.524919034310073
 20
-0.8396760649737018
 30
0.0
 11
1.565111413174776
 21
-0.9896760649737075
 31
0.0
1001
AcDbBlockRepETag
1070
     1
1071
       48
1005
1C04
  0
LINE
  5
1C05
330
1254
100
AcDbEntity
  8
1
 62
     2
100
AcDbLine
 10
0.6964470301561505
 20
0.1079319178869014
 30
0.0
 11
1.34891944290598
 21
0.2362351076253049
 31
0.0
1001
AcDbBlockRepETag
1070
     1
1071
       49
1005
1C05
  0
LINE
  5
1C06
330
1254
100
AcDbEntity
  8
1
 62
     2
100
AcDbLine
 10
0.3565771080985769
 20
0.3437398199517929
 30
0.0
 11
0.8761748792334742
 21
0.3437398199517929
 31
0.0
1001
AcDbBlockRepETag
1070
     1
1071
       50
1005
1C06
  0
LINE
  5
1C07
330
1254
100
AcDbEntity
  8
1
 62
     2
100
AcDbLine
 10
0.9942584557787483
 20
-0.2181271119927146
 30
0.0
 11
1.470604279536075
 21
-0.1077245499287187
 31
0.0
1001
AcDbBlockRepETag
1070
     1
1071
       51
1005
1C07
  0
LINE
  5
1C08
330
1254
100
AcDbEntity
  8
1
 62
     2
100
AcDbLine
 10
1.524919034310073
 20
-0.0653073508559885
 30
0.0
 11
1.524919034310073
 21
-0.2554762810069917
 31
0.0
1001
AcDbBlockRepETag
1070
     1
1071
       52
1005
1C08
  0
LINE
  5
1C09
330
1254
100
AcDbEntity
  8
1
 62
     2
100
AcDbLine
 10
-0.3376528068774292
 20
0.3499999999999943
 30
0.0
 11
0.2126025383106764
 21
0.3499999999999943
 31
0.0
1001
AcDbBlockRepETag
1070
     1
1071
       53
1005
1C09
  0
LINE
  5
1C0A
330
1254
100
AcDbEntity
  8
1
 62
     2
100
AcDbLine
 10
-0.3522926631160317
 20
-0.375
 30
0.0
 11
0.2065771080984859
 21
-0.375
 31
0.0
1001
AcDbBlockRepETag
1070
     1
1071
       54
1005
1C0A
  0
LINE
  5
1C0B
330
1254
100
AcDbEntity
  8
1
 62
     2
100
AcDbLine
 10
-6.402334303656033
 20
-3.064864839751379
 30
0.0
 11
-5.191126962911027
 21
-0.9669921870807911
 31
0.0
1001
AcDbBlockRepETag
1070
     1
1071
       55
1005
1C0B
  0
LINE
  5
1C0C
330
1254
100
AcDbEntity
  8
1
 62
     7
100
AcDbLine
 10
-6.579663314907151
 20
-3.064864839751379
 30
0.0
 11
-6.402334303656033
 21
-3.064864839751379
 31
0.0
1001
AcDbBlockRepETag
1070
     1
1071
       56
1005
1C0C
  0
LINE
  5
1C0D
330
1254
100
AcDbEntity
  8
1
 62
     2
100
AcDbLine
 10
-5.324123721349423
 20
-0.8902064727951142
 30
0.0
 11
-6.579663314907151
 21
-3.064864839751379
 31
0.0
1001
AcDbBlockRepETag
1070
     1
1071
       57
1005
1C0D
  0
LINE
  5
1C0E
330
1254
100
AcDbEntity
  8
1
 62
     2
100
AcDbLine
 10
-3.707978549320642
 20
-0.3583333333332916
 30
0.0
 11
-4.222555225179945
 21
-0.3583333333332916
 31
0.0
1001
AcDbBlockRepETag
1070
     1
1071
       58
1005
1C0E
  0
LINE
  5
1C0F
330
1254
100
AcDbEntity
  8
1
 62
     2
100
AcDbLine
 10
-3.666179567226322
 20
-0.2047619047619094
 30
0.0
 11
-4.730845844808243
 21
-0.2047619047619094
 31
0.0
1001
AcDbBlockRepETag
1070
     1
1071
       59
1005
1C0F
  0
LINE
  5
1C10
330
1254
100
AcDbEntity
  8
1
 62
     2
100
AcDbLine
 10
-2.863333223135526
 20
3.064864839751294
 30
0.0
 11
-3.040662234386644
 21
3.064864839751294
 31
0.0
1001
AcDbBlockRepETag
1070
     1
1071
       60
1005
1C10
  0
LINE
  5
1C11
330
1254
100
AcDbEntity
  8
1
 62
     2
100
AcDbLine
 10
-4.118872816693027
 20
0.8902064727951142
 30
0.0
 11
-2.863333223135526
 21
3.064864839751294
 31
0.0
1001
AcDbBlockRepETag
1070
     1
1071
       61
1005
1C11
  0
LINE
  5
1C12
330
1254
100
AcDbEntity
  8
1
 62
     2
100
AcDbLine
 10
-3.040662234386644
 20
3.064864839751294
 30
0.0
 11
-4.251869575131422
 21
0.9669921870807911
 31
0.0
1001
AcDbBlockRepETag
1070
     1
1071
       62
1005
1C12
  0
LINE
  5
1C13
330
1254
100
AcDbEntity
  8
1
 62
     2
100
AcDbLine
 10
-3.042502358844416
 20
-0.3589207820428157
 30
0.0
 11
-3.554407120749232
 21
-0.3589207820428157
 31
0.0
1001
AcDbBlockRepETag
1070
     1
1071
       63
1005
1C13
  0
LINE
  5
1C14
330
1254
100
AcDbEntity
  8
1
 62
     2
100
AcDbLine
 10
-3.090133173982223
 20
-0.1368780638514977
 30
0.0
 11
-2.469427472649442
 21
-0.262476988758209
 31
0.0
1001
AcDbBlockRepETag
1070
     1
1071
       64
1005
1C14
  0
LINE
  5
1C15
330
1254
100
AcDbEntity
  8
1
 62
     2
100
AcDbLine
 10
-2.311912307561016
 20
0.383928571428612
 30
0.0
 11
-1.76274045408266
 21
0.383928571428612
 31
0.0
1001
AcDbBlockRepETag
1070
     1
1071
       65
1005
1C15
  0
LINE
  5
1C16
330
1254
100
AcDbEntity
  8
1
 62
     2
100
AcDbLine
 10
-2.805359405268148
 20
0.3272600132924026
 30
0.0
 11
-2.146669025511158
 21
0.1344943361401931
 31
0.0
1001
AcDbBlockRepETag
1070
     1
1071
       66
1005
1C16
  0
LINE
  5
1C17
330
1254
100
AcDbEntity
  8
1
 62
   255
100
AcDbLine
 10
7.435724578008858
 20
2.0
 30
0.0
 11
6.30000000000038
 21
2.0
 31
0.0
1001
AcDbBlockRepETag
1070
     1
1071
       67
1005
1C17
  0
LINE
  5
1C18
330
1254
100
AcDbEntity
  8
1
 62
   255
100
AcDbLine
 10
5.700000000000358
 20
1.400000000000005
 30
0.0
 11
5.700000000000358
 21
-1.400000000000005
 31
0.0
1001
AcDbBlockRepETag
1070
     1
1071
       68
1005
1C18
  0
LINE
  5
1C19
330
1254
100
AcDbEntity
  8
1
 62
   255
100
AcDbLine
 10
6.30000000000038
 20
-2.0
 30
0.0
 11
7.435724578008858
 21
-2.0
 31
0.0
1001
AcDbBlockRepETag
1070
     1
1071
       69
1005
1C19
  0
ARC
  5
1C1A
330
1254
100
AcDbEntity
  8
1
 62
     2
100
AcDbCircle
 10
-4.721498269021225
 20
0.0
 30
0.0
 40
0.6142857142858379
100
AcDbArc
 50
199.4712206344878
 51
231.1708626911166
1001
AcDbBlockRepETag
1070
     1
1071
       70
1005
1C1A
  0
ARC
  5
1C1B
330
1254
100
AcDbEntity
  8
1
 62
     2
100
AcDbCircle
 10
-4.721498269021225
 20
0.0
 30
0.0
 40
1.074999999999902
100
AcDbArc
 50
65.03174301155105
 51
234.9682569884567
1001
AcDbBlockRepETag
1070
     1
1071
       71
1005
1C1B
  0
ARC
  5
1C1C
330
1254
100
AcDbEntity
  8
1
 62
     2
100
AcDbCircle
 10
-4.721498269021225
 20
0.0
 30
0.0
 40
1.074999999999969
100
AcDbArc
 50
244.0960437581534
 51
245.0317430115423
1001
AcDbBlockRepETag
1070
     1
1071
       72
1005
1C1C
  0
ARC
  5
1C1D
330
1254
100
AcDbEntity
  8
1
 62
     2
100
AcDbCircle
 10
-4.721498269021225
 20
0.0
 30
0.0
 40
0.6142857142856503
100
AcDbArc
 50
19.47122063449295
 51
51.17086269114082
1001
AcDbBlockRepETag
1070
     1
1071
       73
1005
1C1D
  0
ARC
  5
1C1E
330
1254
100
AcDbEntity
  8
1
 62
     2
100
AcDbCircle
 10
-4.721498269021225
 20
0.0
 30
0.0
 40
1.074999999999909
100
AcDbArc
 50
349.0194245723869
 51
54.96825698846709
1001
AcDbBlockRepETag
1070
     1
1071
       74
1005
1C1E
  0
ARC
  5
1C1F
330
1254
100
AcDbEntity
  8
1
 62
     2
100
AcDbCircle
 10
-4.721498269021225
 20
0.0
 30
0.0
 40
1.074999999999969
100
AcDbArc
 50
64.09604375815334
 51
65.03174301155105
1001
AcDbBlockRepETag
1070
     1
1071
       75
1005
1C1F
  0
ARC
  5
1C20
330
1254
100
AcDbEntity
  8
1
 62
     2
100
AcDbCircle
 10
3.270755505955349
 20
0.0382383600785943
 30
0.0
 40
0.9850802971434639
100
AcDbArc
 50
36.90485018984466
 51
80.29078426813942
1001
AcDbBlockRepETag
1070
     1
1071
       76
1005
1C20
  0
ARC
  5
1C21
330
1254
100
AcDbEntity
  8
1
 62
     2
100
AcDbCircle
 10
3.066850732864679
 20
0.0082555676655147
 30
0.0
 40
1.170283600934485
100
AcDbArc
 50
358.8226101774167
 51
32.07830459275105
1001
AcDbBlockRepETag
1070
     1
1071
       77
1005
1C21
  0
ARC
  5
1C22
330
1254
100
AcDbEntity
  8
1
 62
     2
100
AcDbCircle
 10
3.098064704213072
 20
-0.0530372613597194
 30
0.0
 40
1.139431462527
100
AcDbArc
 50
328.6175359496947
 51
1.873230365026214
1001
AcDbBlockRepETag
1070
     1
1071
       78
1005
1C22
  0
ARC
  5
1C23
330
1254
100
AcDbEntity
  8
1
 62
     2
100
AcDbCircle
 10
3.258133129640981
 20
-0.0468206501162172
 30
0.0
 40
1.009916162051099
100
AcDbArc
 50
280.1950069440622
 51
323.5809410223553
1001
AcDbBlockRepETag
1070
     1
1071
       79
1005
1C23
  0
ARC
  5
1C24
330
1254
100
AcDbEntity
  8
1
 62
     2
100
AcDbCircle
 10
3.398567782040345
 20
-0.2877580099633974
 30
0.0
 40
0.7540076202664556
100
AcDbArc
 50
221.847182713214
 51
272.9130873907171
1001
AcDbBlockRepETag
1070
     1
1071
       80
1005
1C24
  0
ARC
  5
1C25
330
1254
100
AcDbEntity
  8
1
 62
     2
100
AcDbCircle
 10
3.398567782040345
 20
0.2561754448158808
 30
0.0
 40
0.7540076202663668
100
AcDbArc
 50
87.08691260928288
 51
138.1528172867929
1001
AcDbBlockRepETag
1070
     1
1071
       81
1005
1C25
  0
ARC
  5
1C26
330
1254
100
AcDbEntity
  8
1
 62
     2
100
AcDbCircle
 10
3.234742774732779
 20
0.201774599132591
 30
0.0
 40
0.3577339928334583
100
AcDbArc
 50
38.54401927196489
 51
87.65383979111897
1001
AcDbBlockRepETag
1070
     1
1071
       82
1005
1C26
  0
ARC
  5
1C27
330
1254
100
AcDbEntity
  8
1
 62
     2
100
AcDbCircle
 10
3.005573550736471
 20
0.0095393619320987
 30
0.0
 40
0.6568022781091858
100
AcDbArc
 50
357.7898906287642
 51
39.2029971435963
1001
AcDbBlockRepETag
1070
     1
1071
       83
1005
1C27
  0
ARC
  5
1C28
330
1254
100
AcDbEntity
  8
1
 62
     2
100
AcDbCircle
 10
3.005573550736471
 20
-0.0411186421349896
 30
0.0
 40
0.6568022781091701
100
AcDbArc
 50
320.7970028564119
 51
2.210109371242342
1001
AcDbBlockRepETag
1070
     1
1071
       84
1005
1C28
  0
ARC
  5
1C29
330
1254
100
AcDbEntity
  8
1
 62
     2
100
AcDbCircle
 10
3.234742774732779
 20
-0.2333538793354819
 30
0.0
 40
0.3577339928333328
100
AcDbArc
 50
272.3461602088826
 51
321.4559807280491
1001
AcDbBlockRepETag
1070
     1
1071
       85
1005
1C29
  0
ARC
  5
1C2A
330
1254
100
AcDbEntity
  8
1
 62
     2
100
AcDbCircle
 10
3.27288358495798
 20
-0.1998658986989881
 30
0.0
 40
0.3916275847081881
100
AcDbArc
 50
217.4505604600943
 51
266.5603809793027
1001
AcDbBlockRepETag
1070
     1
1071
       86
1005
1C2A
  0
ARC
  5
1C2B
330
1254
100
AcDbEntity
  8
1
 62
     2
100
AcDbCircle
 10
3.61856904097948
 20
0.0024684310913017
 30
0.0
 40
0.7906502646428688
100
AcDbArc
 50
146.1442890429836
 51
213.8557109570164
1001
AcDbBlockRepETag
1070
     1
1071
       87
1005
1C2B
  0
ARC
  5
1C2C
330
1254
100
AcDbEntity
  8
1
 62
     2
100
AcDbCircle
 10
3.232921440152239
 20
0.1865446896887874
 30
0.0
 40
0.3730276136189327
100
AcDbArc
 50
87.47008502281744
 51
136.5799055420068
1001
AcDbBlockRepETag
1070
     1
1071
       88
1005
1C2C
  0
ARC
  5
1C2D
330
1254
100
AcDbEntity
  8
1
 62
     2
100
AcDbCircle
 10
1.586062716496485
 20
0.4276443226268896
 30
0.0
 40
0.4888636720463446
100
AcDbArc
 50
0.3142772754622594
 51
60.78437105940518
1001
AcDbBlockRepETag
1070
     1
1071
       89
1005
1C2D
  0
ARC
  5
1C2E
330
1254
100
AcDbEntity
  8
1
 62
     2
100
AcDbCircle
 10
2.248782712456346
 20
-0.8556494501072222
 30
0.0
 40
0.1745958980366353
100
AcDbArc
 50
174.7507982057936
 51
230.142341022236
1001
AcDbBlockRepETag
1070
     1
1071
       90
1005
1C2E
  0
ARC
  5
1C2F
330
1254
100
AcDbEntity
  8
1
 62
     2
100
AcDbCircle
 10
0.8515605563337658
 20
0.1869980874305952
 30
0.0
 40
1.227791291334791
100
AcDbArc
 50
284.5982688476188
 51
303.2594211752086
1001
AcDbBlockRepETag
1070
     1
1071
       91
1005
1C2F
  0
ARC
  5
1C30
330
1254
100
AcDbEntity
  8
1
 62
     2
100
AcDbCircle
 10
0.9641714457168575
 20
-0.2418981583311108
 30
0.0
 40
0.7843592223910236
100
AcDbArc
 50
223.1100370045321
 51
284.5342506250636
1001
AcDbBlockRepETag
1070
     1
1071
       92
1005
1C30
  0
ARC
  5
1C31
330
1254
100
AcDbEntity
  8
1
 62
     2
100
AcDbCircle
 10
0.7565771080984689
 20
-0.4362297263988069
 30
0.0
 40
0.5000000000000542
100
AcDbArc
 50
154.6485511100333
 51
223.1100370045298
1001
AcDbBlockRepETag
1070
     1
1071
       93
1005
1C31
  0
ARC
  5
1C32
330
1254
100
AcDbEntity
  8
1
 62
     2
100
AcDbCircle
 10
0.8283251886112736
 20
-0.4460496680842994
 30
0.0
 40
0.5694624186657747
100
AcDbArc
 50
103.3903229930322
 51
156.8471072650267
1001
AcDbBlockRepETag
1070
     1
1071
       94
1005
1C32
  0
ARC
  5
1C33
330
1254
100
AcDbEntity
  8
1
 62
     2
100
AcDbCircle
 10
1.328018244736995
 20
0.4320308378283074
 30
0.0
 40
0.1969081716197328
100
AcDbArc
 50
276.0932501958405
 51
359.5038699748765
1001
AcDbBlockRepETag
1070
     1
1071
       95
1005
1C33
  0
ARC
  5
1C34
330
1254
100
AcDbEntity
  8
1
 62
     2
100
AcDbCircle
 10
1.401642352353348
 20
0.4303258111031028
 30
0.0
 40
0.1232766819566962
100
AcDbArc
 50
0.0
 51
52.76269019625486
1001
AcDbBlockRepETag
1070
     1
1071
       96
1005
1C34
  0
ARC
  5
1C35
330
1254
100
AcDbEntity
  8
1
 62
     2
100
AcDbCircle
 10
1.277638268160245
 20
0.2786434052052016
 30
0.0
 40
0.3191490062903121
100
AcDbArc
 50
51.51696063121081
 51
75.9654280631204
1001
AcDbBlockRepETag
1070
     1
1071
       97
1005
1C35
  0
ARC
  5
1C36
330
1254
100
AcDbEntity
  8
1
 62
     2
100
AcDbCircle
 10
1.226205460780676
 20
0.117745808043793
 30
0.0
 40
0.4878378852445108
100
AcDbArc
 50
74.68763965666645
 51
117.8836563148294
1001
AcDbBlockRepETag
1070
     1
1071
       98
1005
1C36
  0
ARC
  5
1C37
330
1254
100
AcDbEntity
  8
1
 62
     2
100
AcDbCircle
 10
1.137301189220266
 20
0.327443827249283
 30
0.0
 40
0.2616343042215373
100
AcDbArc
 50
122.1554758653653
 51
176.4289989855909
1001
AcDbBlockRepETag
1070
     1
1071
       99
1005
1C37
  0
ARC
  5
1C38
330
1254
100
AcDbEntity
  8
1
 62
     2
100
AcDbCircle
 10
1.089867671162181
 20
0.2613657291907998
 30
0.0
 40
0.7379027989559354
100
AcDbArc
 50
107.4588209309864
 51
173.5905571643496
1001
AcDbBlockRepETag
1070
     1
1071
      100
1005
1C38
  0
ARC
  5
1C39
330
1254
100
AcDbEntity
  8
1
 62
     2
100
AcDbCircle
 10
1.231025804848741
 20
-0.3900515491027931
 30
0.0
 40
1.402978733492053
100
AcDbArc
 50
82.34378391562684
 51
104.975746534036
1001
AcDbBlockRepETag
1070
     1
1071
      101
1005
1C39
  0
ARC
  5
1C3A
330
1254
100
AcDbEntity
  8
1
 62
     2
100
AcDbCircle
 10
1.292018737612153
 20
0.0106511270173826
 30
0.0
 40
0.9977471897576027
100
AcDbArc
 50
57.73337273290377
 51
82.74944066849673
1001
AcDbBlockRepETag
1070
     1
1071
      102
1005
1C3A
  0
ARC
  5
1C3B
330
1254
100
AcDbEntity
  8
1
 62
     2
100
AcDbCircle
 10
1.114662156372276
 20
-0.6108977734706116
 30
0.0
 40
0.4108112019339221
100
AcDbArc
 50
107.042901441274
 51
121.7100357920555
1001
AcDbBlockRepETag
1070
     1
1071
      103
1005
1C3B
  0
ARC
  5
1C3C
330
1254
100
AcDbEntity
  8
1
 62
     2
100
AcDbCircle
 10
1.455960796153277
 20
-0.0329904100057945
 30
0.0
 40
0.0761552577016289
100
AcDbArc
 50
281.0861410469207
 51
334.8900926194241
1001
AcDbBlockRepETag
1070
     1
1071
      104
1005
1C3C
  0
ARC
  5
1C3D
330
1254
100
AcDbEntity
  8
1
 62
     2
100
AcDbCircle
 10
1.168209180947684
 20
-0.2532028940534872
 30
0.0
 40
0.3567170976755327
100
AcDbArc
 50
322.9156222189743
 51
359.6348468849819
1001
AcDbBlockRepETag
1070
     1
1071
      105
1005
1C3D
  0
ARC
  5
1C3E
330
1254
100
AcDbEntity
  8
1
 62
     2
100
AcDbCircle
 10
1.121204309993345
 20
-0.1585909252908948
 30
0.0
 40
0.4537200381544135
100
AcDbArc
 50
250.3894893354062
 51
316.9529016256516
1001
AcDbBlockRepETag
1070
     1
1071
      106
1005
1C3E
  0
ARC
  5
1C3F
330
1254
100
AcDbEntity
  8
1
 62
     2
100
AcDbCircle
 10
1.025224752720077
 20
-0.4039377234219046
 30
0.0
 40
0.1905621477568071
100
AcDbArc
 50
131.5896475801746
 51
252.8159919270066
1001
AcDbBlockRepETag
1070
     1
1071
      107
1005
1C3F
  0
ARC
  5
1C40
330
1254
100
AcDbEntity
  8
1
 62
     2
100
AcDbCircle
 10
-0.4978075979480252
 20
-0.2393139830554958
 30
0.0
 40
0.7173343079112122
100
AcDbArc
 50
307.7604599106318
 51
349.0966350619459
1001
AcDbBlockRepETag
1070
     1
1071
      108
1005
1C40
  0
ARC
  5
1C41
330
1254
100
AcDbEntity
  8
1
 62
     2
100
AcDbCircle
 10
-0.6750003363822544
 20
-0.0463186114981227
 30
0.0
 40
0.97866329669831
100
AcDbArc
 50
237.2289410863249
 51
309.0427997753132
1001
AcDbBlockRepETag
1070
     1
1071
      109
1005
1C41
  0
ARC
  5
1C42
330
1254
100
AcDbEntity
  8
1
 62
     2
100
AcDbCircle
 10
-0.6235318365413321
 20
-0.0204401600094855
 30
0.0
 40
1.028698467137296
100
AcDbArc
 50
172.8766239739131
 51
235.598504175478
1001
AcDbBlockRepETag
1070
     1
1071
      110
1005
1C42
  0
ARC
  5
1C43
330
1254
100
AcDbEntity
  8
1
 62
     2
100
AcDbCircle
 10
-0.6181469249355303
 20
0.0357398753103837
 30
0.0
 40
1.028623299164499
100
AcDbArc
 50
137.9481366576456
 51
176.0205507906644
1001
AcDbBlockRepETag
1070
     1
1071
      111
1005
1C43
  0
ARC
  5
1C44
330
1254
100
AcDbEntity
  8
1
 62
     2
100
AcDbCircle
 10
-0.6753728631552463
 20
0.0435870384673081
 30
0.0
 40
0.9814131476799587
100
AcDbArc
 50
57.27420254208585
 51
136.0502188068084
1001
AcDbBlockRepETag
1070
     1
1071
      112
1005
1C44
  0
ARC
  5
1C45
330
1254
100
AcDbEntity
  8
1
 62
     2
100
AcDbCircle
 10
-0.7501952904552525
 20
0.0698754025137021
 30
0.0
 40
1.00272102261456
100
AcDbArc
 50
16.22227620512308
 51
52.86102797304657
1001
AcDbBlockRepETag
1070
     1
1071
      113
1005
1C45
  0
ARC
  5
1C46
330
1254
100
AcDbEntity
  8
1
 62
     2
100
AcDbCircle
 10
-0.7620990809243438
 20
0.118233210492491
 30
0.0
 40
0.4836015759599258
100
AcDbArc
 50
28.63652889743296
 51
54.53158551111979
1001
AcDbBlockRepETag
1070
     1
1071
      114
1005
1C46
  0
ARC
  5
1C47
330
1254
100
AcDbEntity
  8
1
 62
     2
100
AcDbCircle
 10
-0.6753063863369278
 20
0.244535162076005
 30
0.0
 40
0.3303851981791697
100
AcDbArc
 50
54.08065673602167
 51
129.908262952021
1001
AcDbBlockRepETag
1070
     1
1071
      115
1005
1C47
  0
ARC
  5
1C48
330
1254
100
AcDbEntity
  8
1
 62
     2
100
AcDbCircle
 10
-0.5544609603829258
 20
0.0892543359125284
 30
0.0
 40
0.5270719857530835
100
AcDbArc
 50
129.1554767034025
 51
157.9060545164967
1001
AcDbBlockRepETag
1070
     1
1071
      116
1005
1C48
  0
ARC
  5
1C49
330
1254
100
AcDbEntity
  8
1
 62
     2
100
AcDbCircle
 10
-0.3520739956955197
 20
0.0
 30
0.0
 40
0.7481971655607743
100
AcDbArc
 50
157.4023781944878
 51
202.5976218055122
1001
AcDbBlockRepETag
1070
     1
1071
      117
1005
1C49
  0
ARC
  5
1C4A
330
1254
100
AcDbEntity
  8
1
 62
     2
100
AcDbCircle
 10
-0.5544609603829258
 20
-0.0892543359125
 30
0.0
 40
0.5270719857531335
100
AcDbArc
 50
202.0939454835033
 51
230.8445232966056
1001
AcDbBlockRepETag
1070
     1
1071
      118
1005
1C4A
  0
ARC
  5
1C4B
330
1254
100
AcDbEntity
  8
1
 62
     2
100
AcDbCircle
 10
-0.6753063863369278
 20
-0.2445351620761187
 30
0.0
 40
0.3303851981792063
100
AcDbArc
 50
230.091737047979
 51
305.91934326399
1001
AcDbBlockRepETag
1070
     1
1071
      119
1005
1C4B
  0
ARC
  5
1C4C
330
1254
100
AcDbEntity
  8
1
 62
     2
100
AcDbCircle
 10
-0.7620990809243438
 20
-0.1182332104926047
 30
0.0
 40
0.4836015759598678
100
AcDbArc
 50
305.4684144888883
 51
327.9305401430952
1001
AcDbBlockRepETag
1070
     1
1071
      120
1005
1C4C
  0
ARC
  5
1C4D
330
1254
100
AcDbEntity
  8
1
 62
     2
100
AcDbCircle
 10
-4.721498269021225
 20
0.0
 30
0.0
 40
1.075000000000039
100
AcDbArc
 50
235.9039562418464
 51
244.0960437581534
1001
AcDbBlockRepETag
1070
     1
1071
      121
1005
1C4D
  0
ARC
  5
1C4E
330
1254
100
AcDbEntity
  8
1
 62
     2
100
AcDbCircle
 10
-4.721498269021225
 20
0.0
 30
0.0
 40
1.074999999999987
100
AcDbArc
 50
245.0317430115423
 51
340.5287793655086
1001
AcDbBlockRepETag
1070
     1
1071
      122
1005
1C4E
  0
ARC
  5
1C4F
330
1254
100
AcDbEntity
  8
1
 62
     2
100
AcDbCircle
 10
-4.721498269021225
 20
0.0
 30
0.0
 40
0.6142857142856574
100
AcDbArc
 50
248.8291373088679
 51
324.3146652873431
1001
AcDbBlockRepETag
1070
     1
1071
      123
1005
1C4F
  0
ARC
  5
1C50
330
1254
100
AcDbEntity
  8
1
 62
     2
100
AcDbCircle
 10
-4.721498269021225
 20
0.0
 30
0.0
 40
1.074999999999979
100
AcDbArc
 50
54.96825698846709
 51
55.90395624184503
1001
AcDbBlockRepETag
1070
     1
1071
      124
1005
1C50
  0
ARC
  5
1C51
330
1254
100
AcDbEntity
  8
1
 62
     2
100
AcDbCircle
 10
-4.721498269021225
 20
0.0
 30
0.0
 40
0.6142857142856651
100
AcDbArc
 50
68.82913730888756
 51
160.5287793655121
1001
AcDbBlockRepETag
1070
     1
1071
      125
1005
1C51
  0
ARC
  5
1C52
330
1254
100
AcDbEntity
  8
1
 62
     2
100
AcDbCircle
 10
-4.721498269021225
 20
0.0
 30
0.0
 40
1.075000000000023
100
AcDbArc
 50
234.9682569884567
 51
235.9039562418464
1001
AcDbBlockRepETag
1070
     1
1071
      126
1005
1C52
  0
ARC
  5
1C53
330
1254
100
AcDbEntity
  8
1
 62
     2
100
AcDbCircle
 10
-4.721498269021225
 20
0.0
 30
0.0
 40
1.075000000000015
100
AcDbArc
 50
55.90395624184503
 51
64.09604375815334
1001
AcDbBlockRepETag
1070
     1
1071
      127
1005
1C53
  0
ARC
  5
1C54
330
1254
100
AcDbEntity
  8
1
 62
     2
100
AcDbCircle
 10
-2.342373200212847
 20
-0.4269103143936093
 30
0.0
 40
0.5913577368655762
100
AcDbArc
 50
352.4678246460808
 51
3.352051021683305
1001
AcDbBlockRepETag
1070
     1
1071
      128
1005
1C54
  0
ARC
  5
1C55
330
1254
100
AcDbEntity
  8
1
 62
     2
100
AcDbCircle
 10
-2.393458007813251
 20
-0.3726923870098915
 30
0.0
 40
0.6508120230899504
100
AcDbArc
 50
278.9617243080944
 51
348.3217181094087
1001
AcDbBlockRepETag
1070
     1
1071
      129
1005
1C55
  0
ARC
  5
1C56
330
1254
100
AcDbEntity
  8
1
 62
     2
100
AcDbCircle
 10
-2.657951664587244
 20
0.9288567956731981
 30
0.0
 40
1.978539625436221
100
AcDbArc
 50
265.8578006350377
 51
280.6565302443216
1001
AcDbBlockRepETag
1070
     1
1071
      130
1005
1C56
  0
ARC
  5
1C57
330
1254
100
AcDbEntity
  8
1
 62
     2
100
AcDbCircle
 10
-2.787686361486152
 20
-0.2731205953809876
 30
0.0
 40
0.7715065746422372
100
AcDbArc
 50
186.3851417398386
 51
269.02119495976
1001
AcDbBlockRepETag
1070
     1
1071
      131
1005
1C57
  0
ARC
  5
1C58
330
1254
100
AcDbEntity
  8
1
 62
     2
100
AcDbCircle
 10
-2.774611324079927
 20
-0.358318397163913
 30
0.0
 40
0.2678917120307123
100
AcDbArc
 50
180.1288361630436
 51
247.2455026943797
1001
AcDbBlockRepETag
1070
     1
1071
      132
1005
1C58
  0
ARC
  5
1C59
330
1254
100
AcDbEntity
  8
1
 62
     2
100
AcDbCircle
 10
-2.657139047396128
 20
0.0856143748533782
 30
0.0
 40
0.7254832859422315
100
AcDbArc
 50
252.257100090001
 51
290.3657620762409
1001
AcDbBlockRepETag
1070
     1
1071
      133
1005
1C59
  0
ARC
  5
1C5A
330
1254
100
AcDbEntity
  8
1
 62
     2
100
AcDbCircle
 10
-2.473876059868928
 20
-0.4353530264588131
 30
0.0
 40
0.1735637416289206
100
AcDbArc
 50
293.501961092798
 51
54.72830543961773
1001
AcDbBlockRepETag
1070
     1
1071
      134
1005
1C5A
  0
ARC
  5
1C5B
330
1254
100
AcDbEntity
  8
1
 62
     2
100
AcDbCircle
 10
-2.542654127967523
 20
-0.6501609948148826
 30
0.0
 40
0.3945390115073842
100
AcDbArc
 50
64.63671819957541
 51
79.30385255034128
1001
AcDbBlockRepETag
1070
     1
1071
      135
1005
1C5B
  0
ARC
  5
1C5C
330
1254
100
AcDbEntity
  8
1
 62
     2
100
AcDbCircle
 10
-2.906760643697225
 20
0.4023961942585004
 30
0.0
 40
0.5695982885536855
100
AcDbArc
 50
177.992406887379
 51
251.220130392856
1001
AcDbBlockRepETag
1070
     1
1071
      136
1005
1C5C
  0
ARC
  5
1C5D
330
1254
100
AcDbEntity
  8
1
 62
     2
100
AcDbCircle
 10
-2.982740229405351
 20
0.4824158429480008
 30
0.0
 40
0.4969127196635341
100
AcDbArc
 50
123.9726205933037
 51
186.942742258587
1001
AcDbBlockRepETag
1070
     1
1071
      137
1005
1C5D
  0
ARC
  5
1C5E
330
1254
100
AcDbEntity
  8
1
 62
     2
100
AcDbCircle
 10
-2.727756165939524
 20
0.0508398784942017
 30
0.0
 40
0.9977471897575835
100
AcDbArc
 50
97.25055933151478
 51
122.2666272671057
1001
AcDbBlockRepETag
1070
     1
1071
      138
1005
1C5E
  0
ARC
  5
1C5F
330
1254
100
AcDbEntity
  8
1
 62
     2
100
AcDbCircle
 10
-2.663346109717423
 20
-0.6110857916789883
 30
0.0
 40
1.662625093780645
100
AcDbArc
 50
76.47984166369322
 51
96.57353133685427
1001
AcDbBlockRepETag
1070
     1
1071
      139
1005
1C5F
  0
ARC
  5
1C60
330
1254
100
AcDbEntity
  8
1
 62
     2
100
AcDbCircle
 10
-2.534879475700421
 20
0.1688351010091935
 30
0.0
 40
0.8761678430719483
100
AcDbArc
 50
42.46541222154727
 51
72.72164514031979
1001
AcDbBlockRepETag
1070
     1
1071
      140
1005
1C60
  0
ARC
  5
1C61
330
1254
100
AcDbEntity
  8
1
 62
     2
100
AcDbCircle
 10
-2.47180676369453
 20
0.3562130749205892
 30
0.0
 40
0.7096077650176342
100
AcDbArc
 50
2.23839855416327
 51
34.71936976183374
1001
AcDbBlockRepETag
1070
     1
1071
      141
1005
1C61
  0
ARC
  5
1C62
330
1254
100
AcDbEntity
  8
1
 62
     2
100
AcDbCircle
 10
-2.573038617547723
 20
0.3676325787261021
 30
0.0
 40
0.2616343042214046
100
AcDbArc
 50
3.571001014405789
 51
56.12335878194456
1001
AcDbBlockRepETag
1070
     1
1071
      142
1005
1C62
  0
ARC
  5
1C63
330
1254
100
AcDbEntity
  8
1
 62
     2
100
AcDbCircle
 10
-2.640887461345755
 20
0.2322748723065047
 30
0.0
 40
0.412276560360871
100
AcDbArc
 50
58.78128796638721
 51
87.3130432983781
1001
AcDbBlockRepETag
1070
     1
1071
      143
1005
1C63
  0
ARC
  5
1C64
330
1254
100
AcDbEntity
  8
1
 62
     2
100
AcDbCircle
 10
-2.658143868102825
 20
0.116842234698197
 30
0.0
 40
0.5285235767160166
100
AcDbArc
 50
86.0309056387401
 51
104.5331539160754
1001
AcDbBlockRepETag
1070
     1
1071
      144
1005
1C64
  0
ARC
  5
1C65
330
1254
100
AcDbEntity
  8
1
 62
     2
100
AcDbCircle
 10
-2.71779968986442
 20
0.329204905467094
 30
0.0
 40
0.3080181605269808
100
AcDbArc
 50
103.7041217147193
 51
130.4818774695287
1001
AcDbBlockRepETag
1070
     1
1071
      145
1005
1C65
  0
ARC
  5
1C66
330
1254
100
AcDbEntity
  8
1
 62
     2
100
AcDbCircle
 10
-2.846496419864251
 20
0.4739720094472091
 30
0.0
 40
0.1144224065583335
100
AcDbArc
 50
128.5264603545978
 51
184.9888463425997
1001
AcDbBlockRepETag
1070
     1
1071
      146
1005
1C66
  0
ARC
  5
1C67
330
1254
100
AcDbEntity
  8
1
 62
     2
100
AcDbCircle
 10
-2.838232533535347
 20
0.477504569049188
 30
0.0
 40
0.1229940719050701
100
AcDbArc
 50
186.2935651103842
 51
234.8072788277042
1001
AcDbBlockRepETag
1070
     1
1071
      147
1005
1C67
  0
ARC
  5
1C68
330
1254
100
AcDbEntity
  8
1
 62
     2
100
AcDbCircle
 10
-2.694639280296655
 20
0.6913667426582891
 30
0.0
 40
0.3805688590034351
100
AcDbArc
 50
235.6967601582379
 51
253.0861649824438
1001
AcDbBlockRepETag
1070
     1
1071
      148
1005
1C68
  0
ARC
  5
1C69
330
1254
100
AcDbEntity
  8
1
 62
     2
100
AcDbCircle
 10
-2.290775819433349
 20
-0.384679879099707
 30
0.0
 40
0.5388029638231387
100
AcDbArc
 50
359.1861407882206
 51
74.48698187539452
1001
AcDbBlockRepETag
1070
     1
1071
      149
1005
1C69
  0
ARC
  5
1C6A
330
1254
100
AcDbEntity
  8
1
 62
   255
100
AcDbCircle
 10
0.0
 20
0.0
 30
0.0
 40
7.700000000000353
100
AcDbArc
 50
15.05465063998208
 51
344.9453493600179
1001
AcDbBlockRepETag
1070
     1
1071
      150
1005
1C6A
  0
CIRCLE
  5
1C6B
330
1254
100
AcDbEntity
  8
1
 62
   255
100
AcDbCircle
 10
2.5
 20
5.5
 30
0.0
 40
1.0
1001
AcDbBlockRepETag
1070
     1
1071
      151
1005
1C6B
  0
CIRCLE
  5
1C6C
330
1254
100
AcDbEntity
  8
1
 62
     2
100
AcDbCircle
 10
4.719387251786173
 20
0.5767087174261861
 30
0.0
 40
0.4325000000000047
1001
AcDbBlockRepETag
1070
     1
1071
      152
1005
1C6C
  0
ARC
  5
1C6D
330
1254
100
AcDbEntity
  8
1
 62
   255
100
AcDbCircle
 10
6.30000000000038
 20
1.400000000000005
 30
0.0
 40
0.5999999999999944
100
AcDbArc
 50
90.0
 51
180.0
1001
AcDbBlockRepETag
1070
     1
1071
      153
1005
1C6D
  0
ARC
  5
1C6E
330
1254
100
AcDbEntity
  8
1
 62
   255
100
AcDbCircle
 10
6.30000000000038
 20
-1.400000000000005
 30
0.0
 40
0.5999999999999944
100
AcDbArc
 50
180.0
 51
270.0
1001
AcDbBlockRepETag
1070
     1
1071
      154
1005
1C6E
  0
ENDBLK
  5
12F2
330
1254
100
AcDbEntity
  8
0
100
AcDbBlockEnd
  0
BLOCK
  5
177D
330
1778
100
AcDbEntity
  8
0
100
AcDbBlockBegin
  2
*U16
 70
     1
 10
0.0
 20
0.0
 30
0.0
  3
*U16
  1

  0
LINE
  5
177E
330
1778
100
AcDbEntity
  8
0
  6
Continuous
 62
     8
370
     9
100
AcDbLine
 10
0.0
 20
0.0
 30
0.0
 11
182.6008724100327
 21
0.0
 31
0.0
  0
MTEXT
  5
177F
330
1778
100
AcDbEntity
  8
0
 62
     8
100
AcDbMText
 10
1.226077007666106
 20
4.822014527209404
 30
0.0
 40
2.494547437295528
 41
0.0
 46
0.0
 71
     1
 72
     5
  1
General tolerances ISO 2768-1 (fine)
 73
     1
 44
1.0
  0
MTEXT
  5
1780
330
1778
100
AcDbEntity
  8
0
 62
     8
100
AcDbMText
 10
1.201782440435636
 20
10.72252304166574
 30
0.0
 40
2.494547437295528
 41
0.0
 46
0.0
 71
     1
 72
     5
  1
{\fISOCPEUR|b0|i0|c0|p34;\W1;Dim and tolerances in mm}
  7
SLDTEXTSTYLE0
 73
     1
 44
1.0
1001
AcDbBlockRepETag
1070
     1
1071
        0
1005
1780
  0
MTEXT
  5
1781
330
1778
100
AcDbEntity
  8
0
 62
     8
100
AcDbMText
 10
59.70359345098358
 20
4.136879185225183
 30
0.0
 40
2.494547437295528
 41
0.0
 46
0.0
 71
     1
 72
     5
  1
{\fISOCPEUR|b0|i0|c0|p34;\W1;Deviation}
  7
SLDTEXTSTYLE0
 73
     1
 44
1.0
1001
AcDbBlockRepETag
1070
     1
1071
        2
1005
1781
  0
MTEXT
  5
1782
330
1778
100
AcDbEntity
  8
0
 62
     8
100
AcDbMText
 10
59.47558334639808
 20
10.57592322661995
 30
0.0
 40
2.494547437295528
 41
0.0
 46
0.0
 71
     1
 72
     5
  1
{\fISOCPEUR|b0|i0|c0|p34;\W1;Nominal dimension}
  7
SLDTEXTSTYLE0
 73
     1
 44
1.0
1001
AcDbBlockRepETag
1070
     1
1071
        3
1005
1782
  0
LINE
  5
1783
330
1778
100
AcDbEntity
  8
0
  6
Continuous
 62
     8
100
AcDbLine
 10
182.9002181025081
 20
0.1514181371941277
 30
0.0
 11
182.9002181025081
 21
0.0481456577895187
 31
0.0
1001
AcDbBlockRepETag
1070
     1
1071
        4
1005
1783
  0
LINE
  5
1784
330
1778
100
AcDbEntity
  8
0
  6
Continuous
 62
     8
100
AcDbLine
 10
182.8485818628058
 20
0.0997818974918232
 30
0.0
 11
182.9518543422105
 21
0.0997818974918232
 31
0.0
1001
AcDbBlockRepETag
1070
     1
1071
        5
1005
1784
  0
LINE
  5
1785
330
1778
100
AcDbEntity
  8
0
  6
Continuous
 62
     8
100
AcDbLine
 10
166.835332606325
 20
12.17339149400217
 30
0.0
 11
166.835332606325
 21
0.0
 31
0.0
1001
AcDbBlockRepETag
1070
     1
1071
        6
1005
1785
  0
LINE
  5
1786
330
1778
100
AcDbEntity
  8
0
  6
Continuous
 62
     8
100
AcDbLine
 10
150.8702290076335
 20
12.17339149400217
 30
0.0
 11
150.8702290076335
 21
0.0
 31
0.0
1001
AcDbBlockRepETag
1070
     1
1071
        7
1005
1786
  0
LINE
  5
1787
330
1778
100
AcDbEntity
  8
0
  6
Continuous
 62
     8
100
AcDbLine
 10
58.54641519526229
 20
12.17339149400217
 30
0.0
 11
58.54641519526229
 21
0.0
 31
0.0
1001
AcDbBlockRepETag
1070
     1
1071
        8
1005
1787
  0
LINE
  5
1788
330
1778
100
AcDbEntity
  8
0
  6
Continuous
 62
     8
100
AcDbLine
 10
58.34685140027864
 20
12.17339149400217
 30
0.0
 11
58.34685140027864
 21
0.0
 31
0.0
1001
AcDbBlockRepETag
1070
     1
1071
        9
1005
1788
  0
LINE
  5
1789
330
1778
100
AcDbEntity
  8
0
  6
Continuous
 62
     8
100
AcDbLine
 10
0.0
 20
12.17339149400217
 30
0.0
 11
183.0
 21
12.17339149400217
 31
0.0
1001
AcDbBlockRepETag
1070
     1
1071
       10
1005
1789
  0
LINE
  5
178A
330
1778
100
AcDbEntity
  8
0
  6
Continuous
 62
     8
100
AcDbLine
 10
0.1995637949836464
 20
11.97382769901853
 30
0.0
 11
182.8004362050162
 21
11.97382769901853
 31
0.0
1001
AcDbBlockRepETag
1070
     1
1071
       11
1005
178A
  0
LINE
  5
178B
330
1778
100
AcDbEntity
  8
0
  6
Continuous
 62
     8
100
AcDbLine
 10
0.1995637949836464
 20
6.186477644492924
 30
0.0
 11
182.8004362050162
 21
6.186477644492924
 31
0.0
1001
AcDbBlockRepETag
1070
     1
1071
       12
1005
178B
  0
LINE
  5
178C
330
1778
100
AcDbEntity
  8
0
  6
Continuous
 62
     8
100
AcDbLine
 10
0.1995637949836464
 20
5.986913849509278
 30
0.0
 11
182.8004362050162
 21
5.986913849509278
 31
0.0
1001
AcDbBlockRepETag
1070
     1
1071
       13
1005
178C
  0
LINE
  5
178D
330
1778
100
AcDbEntity
  8
0
  6
Continuous
 62
     8
100
AcDbLine
 10
102.9749182115594
 20
0.0
 30
0.0
 11
102.9749182115594
 21
12.17339149400217
 31
0.0
1001
AcDbBlockRepETag
1070
     1
1071
       14
1005
178D
  0
LINE
  5
178E
330
1778
100
AcDbEntity
  8
0
  6
Continuous
 62
     8
100
AcDbLine
 10
118.9400218102508
 20
0.0
 30
0.0
 11
118.9400218102508
 21
12.17339149400217
 31
0.0
1001
AcDbBlockRepETag
1070
     1
1071
       15
1005
178E
  0
LINE
  5
178F
330
1778
100
AcDbEntity
  8
0
  6
Continuous
 62
     8
100
AcDbLine
 10
134.9051254089421
 20
0.0
 30
0.0
 11
134.9051254089421
 21
12.17339149400217
 31
0.0
1001
AcDbBlockRepETag
1070
     1
1071
       16
1005
178F
  0
LINE
  5
1790
330
1778
100
AcDbEntity
  8
0
  6
Continuous
 62
     8
100
AcDbLine
 10
87.00981461286801
 20
12.17339149400217
 30
0.0
 11
87.00981461286801
 21
0.0
 31
0.0
1001
AcDbBlockRepETag
1070
     1
1071
       17
1005
1790
  0
LINE
  5
1791
330
1778
100
AcDbEntity
  8
0
  6
Continuous
 62
     8
100
AcDbLine
 10
0.1995637949836464
 20
0.1995637949836464
 30
0.0
 11
182.8004362050162
 21
0.1995637949836464
 31
0.0
1001
AcDbBlockRepETag
1070
     1
1071
       18
1005
1791
  0
LINE
  5
1792
330
1778
100
AcDbEntity
  8
0
  6
Continuous
 62
     8
100
AcDbLine
 10
0.0
 20
0.0
 30
0.0
 11
183.0
 21
0.0
 31
0.0
1001
AcDbBlockRepETag
1070
     1
1071
       19
1005
1792
  0
LINE
  5
1793
330
1778
100
AcDbEntity
  8
0
  6
Continuous
 62
     8
100
AcDbLine
 10
0.1995637949836464
 20
11.97382769901853
 30
0.0
 11
0.1995637949836464
 21
0.1995637949836464
 31
0.0
1001
AcDbBlockRepETag
1070
     1
1071
       20
1005
1793
  0
LINE
  5
1794
330
1778
100
AcDbEntity
  8
0
  6
Continuous
 62
     8
100
AcDbLine
 10
0.0
 20
12.17339149400217
 30
0.0
 11
0.0
 21
0.0
 31
0.0
1001
AcDbBlockRepETag
1070
     1
1071
       21
1005
1794
  0
LINE
  5
1795
330
1778
100
AcDbEntity
  8
0
  6
Continuous
 62
     8
100
AcDbLine
 10
183.0
 20
12.17339149400217
 30
0.0
 11
183.0
 21
0.0
 31
0.0
1001
AcDbBlockRepETag
1070
     1
1071
       22
1005
1795
  0
LINE
  5
1796
330
1778
100
AcDbEntity
  8
0
  6
Continuous
 62
     8
100
AcDbLine
 10
182.8004362050162
 20
11.97382769901853
 30
0.0
 11
182.8004362050162
 21
0.1995637949836464
 31
0.0
1001
AcDbBlockRepETag
1070
     1
1071
       23
1005
1796
  0
MTEXT
  5
1797
330
1778
100
AcDbEntity
  8
0
 62
     8
100
AcDbMText
 10
172.1679399271618
 20
4.715544329266265
 30
0.0
 40
2.494547437295528
 41
0.0
 46
0.0
 71
     1
 72
     5
  1
%%p 0.3
 73
     1
 44
1.0
1001
AcDbBlockRepETag
1070
     1
1071
       24
1005
1797
  0
MTEXT
  5
1798
330
1778
100
AcDbEntity
  8
0
 62
     8
100
AcDbMText
 10
155.6134241284236
 20
4.786463443227887
 30
0.0
 40
2.494547437295528
 41
0.0
 46
0.0
 71
     1
 72
     5
  1
%%p 0.2
 73
     1
 44
1.0
1001
AcDbBlockRepETag
1070
     1
1071
       25
1005
1798
  0
MTEXT
  5
1799
330
1778
100
AcDbEntity
  8
0
 62
     8
100
AcDbMText
 10
139.0371893510346
 20
4.701803750936193
 30
0.0
 40
2.494547437295528
 41
0.0
 46
0.0
 71
     1
 72
     5
  1
%%p 0.15
 73
     1
 44
1.0
1001
AcDbBlockRepETag
1070
     1
1071
       26
1005
1799
  0
MTEXT
  5
179A
330
1778
100
AcDbEntity
  8
0
 62
     8
100
AcDbMText
 10
124.2020188214053
 20
4.727733551978417
 30
0.0
 40
2.494547437295528
 41
0.0
 46
0.0
 71
     1
 72
     5
  1
%%p 0.1
 73
     1
 44
1.0
1001
AcDbBlockRepETag
1070
     1
1071
       27
1005
179A
  0
MTEXT
  5
179B
330
1778
100
AcDbEntity
  8
0
 62
     8
100
AcDbMText
 10
106.9797552402715
 20
4.840982512085986
 30
0.0
 40
2.494547437295528
 41
0.0
 46
0.0
 71
     1
 72
     5
  1
%%p 0.05
 73
     1
 44
1.0
1001
AcDbBlockRepETag
1070
     1
1071
       28
1005
179B
  0
TEXT
  5
179C
330
1778
100
AcDbEntity
  8
0
  6
Continuous
 62
     8
100
AcDbText
 10
167.430764736752
 20
8.205905243643798
 30
0.0
 40
2.494547437295528
  1
>400...1000
 41
0.95
100
AcDbText
1001
AcDbBlockRepETag
1070
     1
1071
       37
1005
179C
  0
MTEXT
  5
179D
330
1778
100
AcDbEntity
  8
0
 62
     8
100
AcDbMText
 10
152.158998411796
 20
10.79464212916963
 30
0.0
 40
2.494547437295528
 41
0.0
 46
0.0
 71
     1
 72
     5
  1
>120...400
 73
     1
 44
1.0
1001
AcDbBlockRepETag
1070
     1
1071
       29
1005
179D
  0
MTEXT
  5
179E
330
1778
100
AcDbEntity
  8
0
 62
     8
100
AcDbMText
 10
137.2830493916385
 20
10.55174416385091
 30
0.0
 40
2.494547437295528
 41
0.0
 46
0.0
 71
     1
 72
     5
  1
>30...120
 73
     1
 44
1.0
1001
AcDbBlockRepETag
1070
     1
1071
       30
1005
179E
  0
MTEXT
  5
179F
330
1778
100
AcDbEntity
  8
0
 62
     8
100
AcDbMText
 10
122.8891287241895
 20
10.96928044730032
 30
0.0
 40
2.494547437295528
 41
0.0
 46
0.0
 71
     1
 72
     5
  1
>6...30
 73
     1
 44
1.0
1001
AcDbBlockRepETag
1070
     1
1071
       31
1005
179F
  0
MTEXT
  5
17A0
330
1778
100
AcDbEntity
  8
0
 62
     8
100
AcDbMText
 10
107.4396213698669
 20
10.71685272604293
 30
0.0
 40
2.494547437295528
 41
0.0
 46
0.0
 71
     1
 72
     5
  1
>3...6
 73
     1
 44
1.0
1001
AcDbBlockRepETag
1070
     1
1071
       32
1005
17A0
  0
MTEXT
  5
17A1
330
1778
100
AcDbEntity
  8
0
 62
     8
100
AcDbMText
 10
90.14198970310713
 20
10.61314269581496
 30
0.0
 40
2.494547437295528
 41
0.0
 46
0.0
 71
     1
 72
     5
  1
>0.5...3
 73
     1
 44
1.0
1001
AcDbBlockRepETag
1070
     1
1071
       33
1005
17A1
  0
MTEXT
  5
17A2
330
1778
100
AcDbEntity
  8
0
 62
     8
100
AcDbMText
 10
91.12783636475667
 20
4.674455621263604
 30
0.0
 40
2.494547437295528
 41
0.0
 46
0.0
 71
     1
 72
     5
  1
%%p 0.05
 73
     1
 44
1.0
1001
AcDbBlockRepETag
1070
     1
1071
       34
1005
17A2
  0
LINE
  5
17A3
330
1778
100
AcDbEntity
  8
0
  6
Continuous
 62
     8
100
AcDbLine
 10
182.9002181025082
 20
0.1514181371959751
 30
0.0
 11
182.9002181025082
 21
0.0481456577876429
 31
0.0
1001
AcDbBlockRepETag
1070
     1
1071
       35
1005
17A3
  0
LINE
  5
17A4
330
1778
100
AcDbEntity
  8
0
  6
Continuous
 62
     8
100
AcDbLine
 10
182.8485818628039
 20
0.0997818974917948
 30
0.0
 11
182.9518543422123
 21
0.0997818974917948
 31
0.0
1001
AcDbBlockRepETag
1070
     1
1071
       36
1005
17A4
  0
ENDBLK
  5
17A5
330
1778
100
AcDbEntity
  8
0
100
AcDbBlockEnd
  0
BLOCK
  5
17DC
330
17A6
100
AcDbEntity
  8
0
 62
   255
100
AcDbBlockBegin
  2
A3(S11)
 70
     0
 10
0.0
 20
0.0
 30
0.0
  3
A3(S11)
  1

  0
LINE
  5
17A7
330
17A6
100
AcDbEntity
  8
0
  6
Continuous
 62
   255
100
AcDbLine
 10
392.9999664095999
 20
-277.0
 30
0.0
 11
392.9999664095999
 21
0.0
 31
0.0
  0
LINE
  5
17A8
330
17A6
100
AcDbEntity
  8
0
  6
Continuous
 62
   255
100
AcDbLine
 10
10.0
 20
-277.0
 30
0.0
 11
392.9999664095999
 21
-277.0
 31
0.0
  0
LINE
  5
17A9
330
17A6
100
AcDbEntity
  8
0
  6
Continuous
 62
   255
100
AcDbLine
 10
0.0
 20
0.0
 30
0.0
 11
0.0
 21
-222.0000000000001
 31
0.0
  0
LINE
  5
17AA
330
17A6
100
AcDbEntity
  8
0
  6
Continuous
 62
   255
100
AcDbLine
 10
0.0
 20
0.0
 30
0.0
 11
392.9999664095999
 21
0.0
 31
0.0
  0
LINE
  5
17AB
330
17A6
100
AcDbEntity
  8
1
 62
     4
100
AcDbLine
 10
392.9999664096001
 20
-273.0000000000001
 30
0.0
 11
212.9999664095997
 21
-273.0000000000001
 31
0.0
1001
AcDbBlockRepETag
1070
     1
1071
     1947
1005
0
  0
LINE
  5
17AC
330
17A6
100
AcDbEntity
  8
1
  6
CENTER
 62
     2
 48
0.25
100
AcDbLine
 10
389.7429095081104
 20
-258.0000000000001
 30
0.0
 11
381.9665595552822
 21
-258.0000000000001
 31
0.0
1001
AcDbBlockRepETag
1070
     1
1071
     1948
1005
0
  0
LINE
  5
17AD
330
17A6
100
AcDbEntity
  8
1
  6
CENTER
 62
     2
 48
0.25
100
AcDbLine
 10
385.8547345316963
 20
-254.111825023586
 30
0.0
 11
385.8547345316963
 21
-261.8881749764138
 31
0.0
1001
AcDbBlockRepETag
1070
     1
1071
     1949
1005
0
  0
LINE
  5
17AE
330
17A6
100
AcDbEntity
  8
1
  6
CENTER
 62
     2
 48
0.25
100
AcDbLine
 10
379.7429095081104
 20
-258.0000000000001
 30
0.0
 11
368.7429095081109
 21
-258.0000000000001
 31
0.0
1001
AcDbBlockRepETag
1070
     1
1071
     1950
1005
0
  0
LINE
  5
17AF
330
17A6
100
AcDbEntity
  8
1
 62
   255
100
AcDbLine
 10
369.2429095081104
 20
-256.4264502279658
 30
0.0
 11
369.2429095081104
 21
-259.573549772034
 31
0.0
1001
AcDbBlockRepETag
1070
     1
1071
     1951
1005
0
  0
LINE
  5
17B0
330
17A6
100
AcDbEntity
  8
1
 62
   255
100
AcDbLine
 10
379.2429095081104
 20
-254.611825023586
 30
0.0
 11
369.2429095081104
 21
-256.4264502279658
 31
0.0
1001
AcDbBlockRepETag
1070
     1
1071
     1952
1005
0
  0
LINE
  5
17B1
330
17A6
100
AcDbEntity
  8
1
 62
   255
100
AcDbLine
 10
369.2429095081104
 20
-259.573549772034
 30
0.0
 11
379.2429095081104
 21
-261.3881749764142
 31
0.0
1001
AcDbBlockRepETag
1070
     1
1071
     1953
1005
0
  0
LINE
  5
17B2
330
17A6
100
AcDbEntity
  8
1
 62
   255
100
AcDbLine
 10
379.2429095081104
 20
-261.3881749764142
 30
0.0
 11
379.2429095081104
 21
-254.611825023586
 31
0.0
1001
AcDbBlockRepETag
1070
     1
1071
     1954
1005
0
  0
LINE
  5
17B3
330
17A6
100
AcDbEntity
  8
1
 62
     4
100
AcDbLine
 10
212.9999664095997
 20
-246.0000000000001
 30
0.0
 11
212.9999664095997
 21
-277.0000000000001
 31
0.0
1001
AcDbBlockRepETag
1070
     1
1071
     1955
1005
0
  0
LINE
  5
17B4
330
17A6
100
AcDbEntity
  8
1
 62
     4
100
AcDbLine
 10
267.9999664095997
 20
-253.0000000000001
 30
0.0
 11
267.9999664095997
 21
-273.0000000000001
 31
0.0
1001
AcDbBlockRepETag
1070
     1
1071
     1956
1005
0
  0
LINE
  5
17B5
330
17A6
100
AcDbEntity
  8
1
 62
     4
100
AcDbLine
 10
392.9999664096001
 20
-253.0000000000001
 30
0.0
 11
212.9999664095997
 21
-253.0000000000001
 31
0.0
1001
AcDbBlockRepETag
1070
     1
1071
     1957
1005
0
  0
LINE
  5
17B6
330
17A6
100
AcDbEntity
  8
1
 62
     4
100
AcDbLine
 10
337.9999664095997
 20
-263.0000000000003
 30
0.0
 11
392.9999664096001
 21
-263.0000000000003
 31
0.0
1001
AcDbBlockRepETag
1070
     1
1071
     1958
1005
0
  0
LINE
  5
17B7
330
17A6
100
AcDbEntity
  8
1
 62
     4
100
AcDbLine
 10
337.9999664095997
 20
-273.0000000000001
 30
0.0
 11
337.9999664095997
 21
-253.0000000000001
 31
0.0
1001
AcDbBlockRepETag
1070
     1
1071
     1959
1005
0
  0
LINE
  5
17B8
330
17A6
100
AcDbEntity
  8
1
 62
   255
100
AcDbLine
 10
365.4999664096001
 20
-246.0000000000001
 30
0.0
 11
365.4999664096001
 21
-263.0000000000003
 31
0.0
1001
AcDbBlockRepETag
1070
     1
1071
     1960
1005
0
  0
LINE
  5
17B9
330
17A6
100
AcDbEntity
  8
1
 62
     4
100
AcDbLine
 10
212.9999664095997
 20
-246.0000000000001
 30
0.0
 11
392.9999664096001
 21
-246.0000000000001
 31
0.0
1001
AcDbBlockRepETag
1070
     1
1071
     1961
1005
0
  0
LINE
  5
17BA
330
17A6
100
AcDbEntity
  8
1
 62
   255
100
AcDbLine
 10
246.9999664095997
 20
-246.0000000000001
 30
0.0
 11
246.9999664095997
 21
-253.0000000000001
 31
0.0
1001
AcDbBlockRepETag
1070
     1
1071
     1962
1005
0
  0
LINE
  5
17BB
330
17A6
100
AcDbEntity
  8
1
 62
   255
100
AcDbLine
 10
280.9999664096001
 20
-246.0000000000001
 30
0.0
 11
280.9999664096001
 21
-253.0000000000001
 31
0.0
1001
AcDbBlockRepETag
1070
     1
1071
     1963
1005
0
  0
LINE
  5
17BC
330
17A6
100
AcDbEntity
  8
1
 62
   255
100
AcDbLine
 10
314.9999664096001
 20
-246.0000000000001
 30
0.0
 11
314.9999664096001
 21
-253.0000000000001
 31
0.0
1001
AcDbBlockRepETag
1070
     1
1071
     1964
1005
0
  0
CIRCLE
  5
17BD
330
17A6
100
AcDbEntity
  8
1
 62
   255
100
AcDbCircle
 10
385.8547345316963
 20
-258.0000000000001
 30
0.0
 40
3.388174976414007
1001
AcDbBlockRepETag
1070
     1
1071
     1969
1005
0
  0
CIRCLE
  5
17BE
330
17A6
100
AcDbEntity
  8
1
 62
   255
100
AcDbCircle
 10
385.8547345316963
 20
-258.0000000000001
 30
0.0
 40
1.573549772033971
1001
AcDbBlockRepETag
1070
     1
1071
     1970
1005
0
  0
TEXT
  5
17BF
330
17A6
100
AcDbEntity
  8
1
 62
     1
100
AcDbText
 10
222.1999664095997
 20
-262.0000000000001
 30
0.0
 40
6.000000000000001
  1
Portescap
 72
     1
 11
240.4999664095996
 21
-262.0000000000001
 31
0.0
100
AcDbText
1001
AcDbBlockRepETag
1070
     1
1071
     1972
1005
0
  0
TEXT
  5
17C0
330
17A6
100
AcDbEntity
  8
1
 62
     3
100
AcDbText
 10
236.4499664095997
 20
-268.9999999999999
 30
0.0
 40
3.0
  1
India
 72
     1
 11
240.4999664095996
 21
-268.9999999999999
 31
0.0
100
AcDbText
1001
AcDbBlockRepETag
1070
     1
1071
     1973
1005
0
  0
TEXT
  5
17C1
330
17A6
100
AcDbEntity
  8
1
 62
     2
100
AcDbText
 10
214.2762789095997
 20
-276.0500000000003
 30
0.0
 40
2.099999999999999
  1
This drawing remains our property. Without written approval it may not be copied, reproduced or communicated or made available to third parties.
 41
0.925
 72
     1
 11
302.9999664095996
 21
-275.0000000000003
 31
0.0
100
AcDbText
 73
     2
1001
AcDbBlockRepETag
1070
     1
1071
     1974
1005
0
  0
TEXT
  5
17C2
330
17A6
100
AcDbEntity
  8
1
 62
     3
100
AcDbText
 10
316.6999664095992
 20
-250.9999999999999
 30
0.0
 40
3.0
  1
Dim and tolerances in mm
 72
     1
 11
340.2499664095992
 21
-249.4999999999999
 31
0.0
100
AcDbText
 73
     2
1001
AcDbBlockRepETag
1070
     1
1071
     1975
1005
0
  0
TEXT
  5
17C3
330
17A6
100
AcDbEntity
  8
1
 62
     3
100
AcDbText
 10
342.8249664095996
 20
-259.7500000000001
 30
0.0
 40
3.5
  1
Scale 1:1
 72
     1
 11
351.7499664095997
 21
-258.0000000000001
 31
0.0
100
AcDbText
 73
     2
1001
AcDbBlockRepETag
1070
     1
1071
     1976
1005
0
  0
TEXT
  5
17C4
330
17A6
100
AcDbEntity
  8
1
 62
     2
100
AcDbText
 10
367.4999664096001
 20
-250.4999999999999
 30
0.0
 40
2.0
  1
Edition:
 11
367.4999664096001
 21
-249.4999999999999
 31
0.0
100
AcDbText
 73
     2
1001
AcDbBlockRepETag
1070
     1
1071
     1977
1005
0
  0
TEXT
  5
17C5
330
17A6
100
AcDbEntity
  8
1
 62
     3
100
AcDbText
 10
378.0697257023628
 20
-250.7499999999999
 30
0.0
 40
2.5
  1
00
 11
378.0697257023628
 21
-249.4999999999999
 31
0.0
100
AcDbText
 73
     2
1001
AcDbBlockRepETag
1070
     1
1071
     1978
1005
0
  0
TEXT
  5
17C6
330
17A6
100
AcDbEntity
  8
1
 62
     4
100
AcDbText
 10
280.922938282061
 20
-262.0000000000001
 30
0.0
 40
4.0
  1
16GT 83 210E (.0)
100
AcDbText
1001
AcDbBlockRepETag
1070
     1
1071
     1979
1005
0
  0
TEXT
  5
17C7
330
17A6
100
AcDbEntity
  8
1
 62
     4
100
AcDbText
 10
280.922938282061
 20
-268.0000000000001
 30
0.0
 40
4.0
  1
 Outline drawing
100
AcDbText
1001
AcDbBlockRepETag
1070
     1
1071
     1980
1005
0
  0
TEXT
  5
17C8
330
17A6
100
AcDbEntity
  8
1
 62
     4
100
AcDbText
 10
342.4999664096001
 20
-270.5000000000001
 30
0.0
 40
5.0
  1
7.011.90.1129.S11
 72
     1
 11
365.4999664096001
 21
-268.0000000000001
 31
0.0
100
AcDbText
 73
     2
1001
AcDbBlockRepETag
1070
     1
1071
     1981
1005
0
  0
TEXT
  5
17C9
330
17A6
100
AcDbEntity
  8
1
 62
     2
100
AcDbText
 10
282.9999664095997
 20
-250.4999999999999
 30
0.0
 40
2.0
  1
Conformed :
 11
282.9999664095997
 21
-249.4999999999999
 31
0.0
100
AcDbText
 73
     2
1001
AcDbBlockRepETag
1070
     1
1071
     1982
1005
0
  0
TEXT
  5
17CA
330
17A6
100
AcDbEntity
  8
1
 62
     2
100
AcDbText
 10
248.9999664095996
 20
-250.4999999999999
 30
0.0
 40
2.0
  1
Checked :
 11
248.9999664095996
 21
-249.4999999999999
 31
0.0
100
AcDbText
 73
     2
1001
AcDbBlockRepETag
1070
     1
1071
     1983
1005
0
  0
TEXT
  5
17CB
330
17A6
100
AcDbEntity
  8
1
 62
     2
100
AcDbText
 10
214.9999664095997
 20
-250.4999999999999
 30
0.0
 40
2.0
  1
Drawn :  25.01.08 SSG
 11
214.9999664095997
 21
-249.4999999999999
 31
0.0
100
AcDbText
 73
     2
1001
AcDbBlockRepETag
1070
     1
1071
     1984
1005
0
  0
LINE
  5
17CC
330
17A6
100
AcDbEntity
  8
1
 62
     2
100
AcDbLine
 10
212.9999664095992
 20
-210.3437094220527
 30
0.0
 11
212.9999664095992
 21
-202.7233104537037
 31
0.0
1001
AcDbBlockRepETag
1070
     1
1071
     2034
1005
0
  0
LINE
  5
17CD
330
17A6
100
AcDbEntity
  8
1
 62
     2
100
AcDbLine
 10
377.9999664095851
 20
-210.3437094220527
 30
0.0
 11
212.9999664095992
 21
-210.3437094220527
 31
0.0
1001
AcDbBlockRepETag
1070
     1
1071
     2035
1005
0
  0
LINE
  5
17CE
330
17A6
100
AcDbEntity
  8
1
 62
     2
100
AcDbLine
 10
377.9999664095851
 20
-202.7233104537037
 30
0.0
 11
377.9999664095851
 21
-210.3437094220527
 31
0.0
1001
AcDbBlockRepETag
1070
     1
1071
     2036
1005
0
  0
LINE
  5
17CF
330
17A6
100
AcDbEntity
  8
1
 62
     2
100
AcDbLine
 10
212.9999664095992
 20
-202.7233104537037
 30
0.0
 11
377.9999664095851
 21
-202.7233104537037
 31
0.0
1001
AcDbBlockRepETag
1070
     1
1071
     2037
1005
0
  0
LINE
  5
17D0
330
17A6
100
AcDbEntity
  8
1
 62
     2
100
AcDbLine
 10
212.9999664095992
 20
-217.4507390251314
 30
0.0
 11
377.9999664095851
 21
-217.4507390251314
 31
0.0
1001
AcDbBlockRepETag
1070
     1
1071
     2038
1005
0
  0
LINE
  5
17D1
330
17A6
100
AcDbEntity
  8
1
 62
     2
100
AcDbLine
 10
212.9999664095992
 20
-225.0711379934802
 30
0.0
 11
212.9999664095992
 21
-217.4507390251314
 31
0.0
1001
AcDbBlockRepETag
1070
     1
1071
     2039
1005
0
  0
LINE
  5
17D2
330
17A6
100
AcDbEntity
  8
1
 62
     2
100
AcDbLine
 10
377.9999664095851
 20
-225.0711379934802
 30
0.0
 11
212.9999664095992
 21
-225.0711379934802
 31
0.0
1001
AcDbBlockRepETag
1070
     1
1071
     2040
1005
0
  0
LINE
  5
17D3
330
17A6
100
AcDbEntity
  8
1
 62
     2
100
AcDbLine
 10
377.9999664095851
 20
-217.4507390251314
 30
0.0
 11
377.9999664095851
 21
-225.0711379934802
 31
0.0
1001
AcDbBlockRepETag
1070
     1
1071
     2041
1005
0
  0
TEXT
  5
17D4
330
17A6
100
AcDbEntity
  8
1
 62
     3
100
AcDbText
 10
217.0824520635531
 20
-208.1186832540098
 30
0.0
 40
3.299999999999733
  1
Motor: 16GT 83 210E (.0) - no. 7.011.90.0935
100
AcDbText
1001
AcDbBlockRepETag
1070
     1
1071
     2042
1005
0
  0
TEXT
  5
17D5
330
17A6
100
AcDbEntity
  8
1
 62
     3
100
AcDbText
 10
217.0824520635531
 20
-222.9686832540084
 30
0.0
 40
3.299999999999733
  1
Gearbox: R16 2R 30.2 (.0) - no. 7.011.90.1130
100
AcDbText
1001
AcDbBlockRepETag
1070
     1
1071
     2043
1005
0
  0
LINE
  5
17D6
330
17A6
100
AcDbEntity
  8
0
  6
Continuous
 62
   255
100
AcDbLine
 10
10.0
 20
-222.0
 30
0.0
 11
10.0
 21
-277.0
 31
0.0
1001
AcDbBlockRepETag
1070
     1
1071
     1946
1005
0
  0
LINE
  5
17D7
330
17A6
100
AcDbEntity
  8
0
  6
Continuous
 62
   255
100
AcDbLine
 10
10.0
 20
-222.0
 30
0.0
 11
0.0
 21
-222.0
 31
0.0
  0
TEXT
  5
17D8
330
17A6
100
AcDbEntity
  8
1
 62
     4
100
AcDbText
 10
2.500000000000004
 20
-226.5000000000001
 30
0.0
 40
5.0
  1
7.011.90.1129.S11
 50
270.0
 72
     1
 11
5.0
 21
-249.5000000000001
 31
0.0
100
AcDbText
 73
     2
  0
TEXT
  5
17D9
330
17A6
100
AcDbEntity
  8
1
 62
     2
100
AcDbText
 10
213.8477728631098
 20
-244.058608062222
 30
0.0
 40
3.0
  1
General tolerance : %%P0.2mm
 11
213.8477728631098
 21
-242.558608062222
 31
0.0
100
AcDbText
 73
     2
1001
AcDbBlockRepETag
1070
     1
1071
     1984
1005
0
  0
ENDBLK
  5
17DD
330
17A6
100
AcDbEntity
  8
0
 62
   255
100
AcDbBlockEnd
  0
BLOCK
  5
1A93
330
1A92
100
AcDbEntity
  8
0
 62
   255
100
AcDbBlockBegin
  2
*D18
 70
     1
 10
0.0
 20
0.0
 30
0.0
  3
*D18
  1

  0
LINE
  5
1B46
330
1A92
100
AcDbEntity
  8
0
 62
     2
370
    -2
100
AcDbLine
 10
1911.538813975984
 20
802.8029529394709
 30
0.0
 11
1908.677530678409
 21
802.8029529394709
 31
0.0
  0
LINE
  5
1B47
330
1A92
100
AcDbEntity
  8
0
 62
     2
370
    -2
100
AcDbLine
 10
1917.773613271274
 20
792.6441273223246
 30
0.0
 11
1916.158172327197
 21
789.846101530555
 31
0.0
  0
ARC
  5
1B48
330
1A92
100
AcDbEntity
  8
0
 62
     2
370
    -2
100
AcDbCircle
 10
1923.638813975983
 20
802.8029529394709
 30
0.0
 40
14.56128329757472
100
AcDbArc
 50
185.5108480084547
 51
234.4891519915473
  0
SOLID
  5
1B49
330
1A92
100
AcDbEntity
  8
0
 62
     2
100
AcDbTrace
 10
1908.911768876151
 20
801.3933546032925
 30
0.0
 11
1909.37789600152
 21
801.4157885234347
 31
0.0
 12
1909.077530678409
 22
802.8029529394707
 32
0.0
 13
1909.077530678409
 23
802.8029529394707
 33
0.0
  0
SOLID
  5
1B4A
330
1A92
100
AcDbEntity
  8
0
 62
     2
100
AcDbTrace
 10
1915.307035365239
 20
791.1462179003172
 30
0.0
 11
1915.054543457805
 21
790.7537569284256
 31
0.0
 12
1916.358172327196
 22
790.1925116920688
 32
0.0
 13
1916.358172327196
 23
790.1925116920688
 33
0.0
  0
MTEXT
  5
1B4B
330
1A92
100
AcDbEntity
  8
0
 62
     3
100
AcDbMText
 10
1911.981000672745
 20
796.072311290683
 30
0.0
 40
1.4
 41
0.0
 46
0.0
 71
     5
 72
     1
  1
\A1;6x60%%D
 11
0.5000000000000119
 21
-0.8660254037844318
 31
0.0
 73
     1
 44
1.0
  0
POINT
  5
1B4C
330
1A92
100
AcDbEntity
  8
Defpoints
 62
     0
100
AcDbPoint
 10
1909.955683512079
 20
797.8227007390284
 30
0.0
  0
POINT
  5
1B4D
330
1A92
100
AcDbEntity
  8
Defpoints
 62
     0
100
AcDbPoint
 10
1935.738813975984
 20
802.8029529394709
 30
0.0
  0
POINT
  5
1B4E
330
1A92
100
AcDbEntity
  8
Defpoints
 62
     0
100
AcDbPoint
 10
1917.773613271274
 20
792.6441273223246
 30
0.0
  0
POINT
  5
1B4F
330
1A92
100
AcDbEntity
  8
Defpoints
 62
     0
100
AcDbPoint
 10
1929.504014680693
 20
812.9617785566168
 30
0.0
  0
POINT
  5
1B50
330
1A92
100
AcDbEntity
  8
Defpoints
 62
     0
100
AcDbPoint
 10
1911.538813975984
 20
802.8029529394709
 30
0.0
  0
ENDBLK
  5
1A94
330
1A92
100
AcDbEntity
  8
0
 62
   255
100
AcDbBlockEnd
  0
BLOCK
  5
1AA1
330
1AA0
100
AcDbEntity
  8
0
 62
   255
100
AcDbBlockBegin
  2
*D19
 70
     1
 10
0.0
 20
0.0
 30
0.0
  3
*D19
  1

  0
LINE
  5
1B51
330
1AA0
100
AcDbEntity
  8
0
 62
     2
370
    -2
100
AcDbLine
 10
2057.276971350474
 20
807.802952939471
 30
0.0
 11
2044.044298218528
 21
807.802952939471
 31
0.0
  0
LINE
  5
1B52
330
1AA0
100
AcDbEntity
  8
0
 62
     2
370
    -2
100
AcDbLine
 10
2057.276971350474
 20
797.8029529394711
 30
0.0
 11
2044.044298218528
 21
797.8029529394711
 31
0.0
  0
LINE
  5
1B53
330
1AA0
100
AcDbEntity
  8
0
 62
     2
370
    -2
100
AcDbLine
 10
2044.444298218528
 20
806.402952939471
 30
0.0
 11
2044.444298218528
 21
799.202952939471
 31
0.0
  0
SOLID
  5
1B54
330
1AA0
100
AcDbEntity
  8
0
 62
     2
100
AcDbTrace
 10
2044.210964885194
 20
806.402952939471
 30
0.0
 11
2044.677631551861
 21
806.402952939471
 31
0.0
 12
2044.444298218528
 22
807.802952939471
 32
0.0
 13
2044.444298218528
 23
807.802952939471
 33
0.0
  0
SOLID
  5
1B55
330
1AA0
100
AcDbEntity
  8
0
 62
     2
100
AcDbTrace
 10
2044.210964885194
 20
799.202952939471
 30
0.0
 11
2044.677631551861
 21
799.202952939471
 31
0.0
 12
2044.444298218528
 22
797.8029529394711
 32
0.0
 13
2044.444298218528
 23
797.8029529394711
 33
0.0
  0
MTEXT
  5
1B56
330
1AA0
100
AcDbEntity
  8
0
 62
     3
100
AcDbMText
 10
2043.344298218528
 20
802.8029529394714
 30
0.0
 40
1.4
 41
0.0
 46
0.0
 71
     5
 72
     1
  1
\A1;10
 11
0.0000000000000001
 21
1.0
 31
0.0
 73
     1
 44
1.0
  0
POINT
  5
1B57
330
1AA0
100
AcDbEntity
  8
Defpoints
 62
     0
100
AcDbPoint
 10
2057.276971350474
 20
807.802952939471
 30
0.0
  0
POINT
  5
1B58
330
1AA0
100
AcDbEntity
  8
Defpoints
 62
     0
100
AcDbPoint
 10
2057.276971350474
 20
797.8029529394711
 30
0.0
  0
POINT
  5
1B59
330
1AA0
100
AcDbEntity
  8
Defpoints
 62
     0
100
AcDbPoint
 10
2044.444298218528
 20
797.8029529394711
 30
0.0
  0
ENDBLK
  5
1AA2
330
1AA0
100
AcDbEntity
  8
0
 62
   255
100
AcDbBlockEnd
  0
BLOCK
  5
1AAD
330
1AAC
100
AcDbEntity
  8
0
 62
   255
100
AcDbBlockBegin
  2
*D20
 70
     1
 10
0.0
 20
0.0
 30
0.0
  3
*D20
  1

  0
LINE
  5
1B5A
330
1AAC
100
AcDbEntity
  8
0
 62
     2
370
    -2
100
AcDbLine
 10
2059.526971350473
 20
808.1029529394712
 30
0.0
 11
2059.526971350473
 21
816.7809691928519
 31
0.0
  0
LINE
  5
1B5B
330
1AAC
100
AcDbEntity
  8
0
 62
     2
370
    -2
100
AcDbLine
 10
2057.476971350473
 20
808.1029529394712
 30
0.0
 11
2057.476971350473
 21
816.7809691928519
 31
0.0
  0
LINE
  5
1B5C
330
1AAC
100
AcDbEntity
  8
0
 62
     2
370
    -2
100
AcDbLine
 10
2060.926971350474
 20
816.3809691928518
 30
0.0
 11
2062.326971350473
 21
816.3809691928518
 31
0.0
  0
LINE
  5
1B5D
330
1AAC
100
AcDbEntity
  8
0
 62
     2
370
    -2
100
AcDbLine
 10
2056.076971350473
 20
816.3809691928518
 30
0.0
 11
2054.676971350474
 21
816.3809691928518
 31
0.0
  0
SOLID
  5
1B5E
330
1AAC
100
AcDbEntity
  8
0
 62
     2
100
AcDbTrace
 10
2060.926971350474
 20
816.6143025261852
 30
0.0
 11
2060.926971350474
 21
816.1476358595185
 31
0.0
 12
2059.526971350473
 22
816.3809691928518
 32
0.0
 13
2059.526971350473
 23
816.3809691928518
 33
0.0
  0
SOLID
  5
1B5F
330
1AAC
100
AcDbEntity
  8
0
 62
     2
100
AcDbTrace
 10
2056.076971350473
 20
816.6143025261852
 30
0.0
 11
2056.076971350473
 21
816.1476358595185
 31
0.0
 12
2057.476971350473
 22
816.3809691928518
 32
0.0
 13
2057.476971350473
 23
816.3809691928518
 33
0.0
  0
MTEXT
  5
1B60
330
1AAC
100
AcDbEntity
  8
0
 62
     3
100
AcDbMText
 10
2058.501971350473
 20
817.4809691928519
 30
0.0
 40
1.4
 41
0.0
 46
0.0
 71
     5
 72
     1
  1
\A1;2
 73
     1
 44
1.0
  0
POINT
  5
1B61
330
1AAC
100
AcDbEntity
  8
Defpoints
 62
     0
100
AcDbPoint
 10
2059.526971350473
 20
808.1029529394712
 30
0.0
  0
POINT
  5
1B62
330
1AAC
100
AcDbEntity
  8
Defpoints
 62
     0
100
AcDbPoint
 10
2057.476971350473
 20
808.1029529394712
 30
0.0
  0
POINT
  5
1B63
330
1AAC
100
AcDbEntity
  8
Defpoints
 62
     0
100
AcDbPoint
 10
2057.476971350473
 20
816.3809691928518
 30
0.0
  0
ENDBLK
  5
1AAE
330
1AAC
100
AcDbEntity
  8
0
 62
   255
100
AcDbBlockEnd
  0
BLOCK
  5
1ABA
330
1AB9
100
AcDbEntity
  8
0
 62
   255
100
AcDbBlockBegin
  2
*D21
 70
     1
 10
0.0
 20
0.0
 30
0.0
  3
*D21
  1

  0
LINE
  5
1CFA
330
1AB9
100
AcDbEntity
  8
0
 62
     2
370
    -2
100
AcDbLine
 10
2004.649987658655
 20
807.802952939471
 30
0.0
 11
2023.919566719401
 21
807.802952939471
 31
0.0
  0
LINE
  5
1CFB
330
1AB9
100
AcDbEntity
  8
0
 62
     2
370
    -2
100
AcDbLine
 10
2004.649987658655
 20
797.8029529394711
 30
0.0
 11
2010.939081651117
 21
797.8029529394711
 31
0.0
  0
LINE
  5
1CFC
330
1AB9
100
AcDbEntity
  8
0
 62
     2
370
    -2
100
AcDbLine
 10
2011.321566517252
 20
797.8029529394711
 30
0.0
 11
2015.153194164742
 21
797.8029529394711
 31
0.0
  0
LINE
  5
1CFD
330
1AB9
100
AcDbEntity
  8
0
 62
     2
370
    -2
100
AcDbLine
 10
2015.42729780995
 20
797.8029529394711
 30
0.0
 11
2018.869317960413
 21
797.8029529394711
 31
0.0
  0
LINE
  5
1CFE
330
1AB9
100
AcDbEntity
  8
0
 62
     2
370
    -2
100
AcDbLine
 10
2019.205087779426
 20
797.8029529394711
 30
0.0
 11
2023.919566719401
 21
797.8029529394711
 31
0.0
  0
LINE
  5
1CFF
330
1AB9
100
AcDbEntity
  8
0
 62
     2
370
    -2
100
AcDbLine
 10
2023.519566719401
 20
806.402952939471
 30
0.0
 11
2023.519566719401
 21
799.202952939471
 31
0.0
  0
MTEXT
  5
1D00
330
1AB9
100
AcDbEntity
  8
0
 62
     3
100
AcDbMText
 10
2022.028570279541
 20
801.2344225628524
 30
0.0
 40
1.4
 41
0.0
 46
0.0
 71
     5
 72
     1
  1
\A1;%%C10 h8
 11
0.0000000000000001
 21
1.0
 31
0.0
 73
     1
 44
1.0
  0
SOLID
  5
1D01
330
1AB9
100
AcDbEntity
  8
0
 62
     2
100
AcDbTrace
 10
2023.286233386068
 20
806.402952939471
 30
0.0
 11
2023.752900052734
 21
806.402952939471
 31
0.0
 12
2023.519566719401
 22
807.802952939471
 32
0.0
 13
2023.519566719401
 23
807.802952939471
 33
0.0
  0
SOLID
  5
1D02
330
1AB9
100
AcDbEntity
  8
0
 62
     2
100
AcDbTrace
 10
2023.286233386068
 20
799.202952939471
 30
0.0
 11
2023.752900052734
 21
799.202952939471
 31
0.0
 12
2023.519566719401
 22
797.8029529394711
 32
0.0
 13
2023.519566719401
 23
797.8029529394711
 33
0.0
  0
POINT
  5
1D03
330
1AB9
100
AcDbEntity
  8
Defpoints
 62
     0
100
AcDbPoint
 10
2004.649987658655
 20
807.802952939471
 30
0.0
  0
POINT
  5
1D04
330
1AB9
100
AcDbEntity
  8
Defpoints
 62
     0
100
AcDbPoint
 10
2004.649987658655
 20
797.8029529394711
 30
0.0
  0
POINT
  5
1D05
330
1AB9
100
AcDbEntity
  8
Defpoints
 62
     0
100
AcDbPoint
 10
2023.519566719401
 20
797.8029529394711
 30
0.0
  0
ENDBLK
  5
1ABB
330
1AB9
100
AcDbEntity
  8
0
 62
   255
100
AcDbBlockEnd
  0
BLOCK
  5
1AC6
330
1AC5
100
AcDbEntity
  8
0
 62
   255
100
AcDbBlockBegin
  2
*D22
 70
     1
 10
0.0
 20
0.0
 30
0.0
  3
*D22
  1

  0
LINE
  5
1B6D
330
1AC5
100
AcDbEntity
  8
0
 62
     2
370
    -2
100
AcDbLine
 10
2005.149987658655
 20
800.552952939471
 30
0.0
 11
2005.149987658655
 21
787.0315091261386
 31
0.0
  0
LINE
  5
1B6E
330
1AC5
100
AcDbEntity
  8
0
 62
     2
370
    -2
100
AcDbLine
 10
2011.149987658647
 20
802.1751499979952
 30
0.0
 11
2011.149987658647
 21
787.0315091261386
 31
0.0
  0
LINE
  5
1B6F
330
1AC5
100
AcDbEntity
  8
0
 62
     2
370
    -2
100
AcDbLine
 10
2006.549987658655
 20
787.4315091261386
 30
0.0
 11
2009.749987658647
 21
787.4315091261386
 31
0.0
  0
SOLID
  5
1B70
330
1AC5
100
AcDbEntity
  8
0
 62
     2
100
AcDbTrace
 10
2006.549987658655
 20
787.6648424594719
 30
0.0
 11
2006.549987658655
 21
787.1981757928052
 31
0.0
 12
2005.149987658655
 22
787.4315091261386
 32
0.0
 13
2005.149987658655
 23
787.4315091261386
 33
0.0
  0
SOLID
  5
1B71
330
1AC5
100
AcDbEntity
  8
0
 62
     2
100
AcDbTrace
 10
2009.749987658647
 20
787.6648424594719
 30
0.0
 11
2009.749987658647
 21
787.1981757928052
 31
0.0
 12
2011.149987658647
 22
787.4315091261386
 32
0.0
 13
2011.149987658647
 23
787.4315091261386
 33
0.0
  0
MTEXT
  5
1B72
330
1AC5
100
AcDbEntity
  8
0
 62
     3
100
AcDbMText
 10
2008.149987658651
 20
788.5315091261386
 30
0.0
 40
1.4
 41
0.0
 46
0.0
 71
     5
 72
     1
  1
\A1;6{\H0.57143x;%%P0.25}
 73
     1
 44
1.0
  0
POINT
  5
1B73
330
1AC5
100
AcDbEntity
  8
Defpoints
 62
     0
100
AcDbPoint
 10
2005.149987658655
 20
800.552952939471
 30
0.0
  0
POINT
  5
1B74
330
1AC5
100
AcDbEntity
  8
Defpoints
 62
     0
100
AcDbPoint
 10
2011.149987658647
 20
802.1751499979952
 30
0.0
  0
POINT
  5
1B75
330
1AC5
100
AcDbEntity
  8
Defpoints
 62
     0
100
AcDbPoint
 10
2011.149987658647
 20
787.4315091261386
 30
0.0
  0
ENDBLK
  5
1AC7
330
1AC5
100
AcDbEntity
  8
0
 62
   255
100
AcDbBlockEnd
  0
BLOCK
  5
1AD2
330
1AD1
100
AcDbEntity
  8
0
 62
   255
100
AcDbBlockBegin
  2
*D23
 70
     1
 10
0.0
 20
0.0
 30
0.0
  3
*D23
  1

  0
LINE
  5
1B76
330
1AD1
100
AcDbEntity
  8
0
 62
     2
370
    -2
100
AcDbLine
 10
2003.649987658655
 20
792.302952939471
 30
0.0
 11
2003.649987658655
 21
780.2383506662693
 31
0.0
  0
LINE
  5
1B77
330
1AD1
100
AcDbEntity
  8
0
 62
     2
370
    -2
100
AcDbLine
 10
2011.149987658647
 20
802.8029529394711
 30
0.0
 11
2011.149987658647
 21
780.2383506662693
 31
0.0
  0
LINE
  5
1B78
330
1AD1
100
AcDbEntity
  8
0
 62
     2
370
    -2
100
AcDbLine
 10
2005.049987658655
 20
780.6383506662694
 30
0.0
 11
2009.749987658647
 21
780.6383506662694
 31
0.0
  0
MTEXT
  5
1B79
330
1AD1
100
AcDbEntity
  8
0
 62
     3
100
AcDbMText
 10
2007.533180249321
 20
781.7383506662694
 30
0.0
 40
1.4
 41
0.0
 46
0.0
 71
     5
 72
     1
  1
\A1;7.5{\H0.57143x;%%P0.25}
 73
     1
 44
1.0
  0
SOLID
  5
1B7A
330
1AD1
100
AcDbEntity
  8
0
 62
     2
100
AcDbTrace
 10
2005.049987658655
 20
780.8716839996027
 30
0.0
 11
2005.049987658655
 21
780.405017332936
 31
0.0
 12
2003.649987658655
 22
780.6383506662694
 32
0.0
 13
2003.649987658655
 23
780.6383506662694
 33
0.0
  0
SOLID
  5
1B7B
330
1AD1
100
AcDbEntity
  8
0
 62
     2
100
AcDbTrace
 10
2009.749987658647
 20
780.8716839996027
 30
0.0
 11
2009.749987658647
 21
780.405017332936
 31
0.0
 12
2011.149987658647
 22
780.6383506662694
 32
0.0
 13
2011.149987658647
 23
780.6383506662694
 33
0.0
  0
POINT
  5
1B7C
330
1AD1
100
AcDbEntity
  8
Defpoints
 62
     0
100
AcDbPoint
 10
2003.649987658655
 20
792.302952939471
 30
0.0
  0
POINT
  5
1B7D
330
1AD1
100
AcDbEntity
  8
Defpoints
 62
     0
100
AcDbPoint
 10
2011.149987658647
 20
802.8029529394711
 30
0.0
  0
POINT
  5
1B7E
330
1AD1
100
AcDbEntity
  8
Defpoints
 62
     0
100
AcDbPoint
 10
2011.149987658647
 20
780.6383506662694
 30
0.0
  0
ENDBLK
  5
1AD3
330
1AD1
100
AcDbEntity
  8
0
 62
   255
100
AcDbBlockEnd
  0
BLOCK
  5
1ADE
330
1ADD
100
AcDbEntity
  8
0
 62
   255
100
AcDbBlockBegin
  2
*D24
 70
     1
 10
0.0
 20
0.0
 30
0.0
  3
*D24
  1

  0
LINE
  5
1B7F
330
1ADD
100
AcDbEntity
  8
0
 62
     2
370
    -2
100
AcDbLine
 10
2011.149987658647
 20
802.1751499979952
 30
0.0
 11
2011.149987658647
 21
783.5714740617086
 31
0.0
  0
LINE
  5
1B80
330
1ADD
100
AcDbEntity
  8
0
 62
     2
370
    -2
100
AcDbLine
 10
2004.649987658655
 20
797.8029529394711
 30
0.0
 11
2004.649987658655
 21
783.5714740617086
 31
0.0
  0
LINE
  5
1B81
330
1ADD
100
AcDbEntity
  8
0
 62
     2
370
    -2
100
AcDbLine
 10
2009.749987658647
 20
783.9714740617085
 30
0.0
 11
2006.049987658655
 21
783.9714740617085
 31
0.0
  0
SOLID
  5
1B82
330
1ADD
100
AcDbEntity
  8
0
 62
     2
100
AcDbTrace
 10
2009.749987658647
 20
784.2048073950419
 30
0.0
 11
2009.749987658647
 21
783.7381407283752
 31
0.0
 12
2011.149987658647
 22
783.9714740617085
 32
0.0
 13
2011.149987658647
 23
783.9714740617085
 33
0.0
  0
SOLID
  5
1B83
330
1ADD
100
AcDbEntity
  8
0
 62
     2
100
AcDbTrace
 10
2006.049987658655
 20
784.2048073950419
 30
0.0
 11
2006.049987658655
 21
783.7381407283752
 31
0.0
 12
2004.649987658655
 22
783.9714740617085
 32
0.0
 13
2004.649987658655
 23
783.9714740617085
 33
0.0
  0
MTEXT
  5
1B84
330
1ADD
100
AcDbEntity
  8
0
 62
     3
100
AcDbMText
 10
2007.899987658651
 20
785.0714740617086
 30
0.0
 40
1.4
 41
0.0
 46
0.0
 71
     5
 72
     1
  1
\A1;6.5
 73
     1
 44
1.0
  0
POINT
  5
1B85
330
1ADD
100
AcDbEntity
  8
Defpoints
 62
     0
100
AcDbPoint
 10
2011.149987658647
 20
802.1751499979952
 30
0.0
  0
POINT
  5
1B86
330
1ADD
100
AcDbEntity
  8
Defpoints
 62
     0
100
AcDbPoint
 10
2004.649987658655
 20
797.8029529394711
 30
0.0
  0
POINT
  5
1B87
330
1ADD
100
AcDbEntity
  8
Defpoints
 62
     0
100
AcDbPoint
 10
2004.649987658655
 20
783.9714740617085
 30
0.0
  0
ENDBLK
  5
1ADF
330
1ADD
100
AcDbEntity
  8
0
 62
   255
100
AcDbBlockEnd
  0
BLOCK
  5
1AEA
330
1AE9
100
AcDbEntity
  8
0
 62
   255
100
AcDbBlockBegin
  2
*D25
 70
     1
 10
0.0
 20
0.0
 30
0.0
  3
*D25
  1

  0
LINE
  5
1DA2
330
1AE9
100
AcDbEntity
  8
0
 62
     2
370
    -2
100
AcDbLine
 10
2005.149987658655
 20
805.052952939471
 30
0.0
 11
2014.920102921292
 21
805.052952939471
 31
0.0
  0
LINE
  5
1DA3
330
1AE9
100
AcDbEntity
  8
0
 62
     2
370
    -2
100
AcDbLine
 10
2015.537000979613
 20
805.052952939471
 30
0.0
 11
2019.433480253919
 21
805.052952939471
 31
0.0
  0
LINE
  5
1DA4
330
1AE9
100
AcDbEntity
  8
0
 62
     2
370
    -2
100
AcDbLine
 10
2005.149987658655
 20
800.552952939471
 30
0.0
 11
2010.822417869258
 21
800.552952939471
 31
0.0
  0
LINE
  5
1DA5
330
1AE9
100
AcDbEntity
  8
0
 62
     2
370
    -2
100
AcDbLine
 10
2011.439186931802
 20
800.552952939471
 30
0.0
 11
2014.967586783253
 21
800.552952939471
 31
0.0
  0
LINE
  5
1DA6
330
1AE9
100
AcDbEntity
  8
0
 62
     2
370
    -2
100
AcDbLine
 10
2015.574224001388
 20
800.552952939471
 30
0.0
 11
2019.433480253919
 21
800.552952939471
 31
0.0
  0
LINE
  5
1DA7
330
1AE9
100
AcDbEntity
  8
0
 62
     2
370
    -2
100
AcDbLine
 10
2019.033480253919
 20
803.652952939471
 30
0.0
 11
2019.033480253919
 21
801.9529529394711
 31
0.0
  0
LINE
  5
1DA8
330
1AE9
100
AcDbEntity
  8
0
 62
     2
370
    -2
100
AcDbLine
 10
2019.033480253919
 20
789.9665087664327
 30
0.0
 11
2019.033480253919
 21
800.552952939471
 31
0.0
  0
MTEXT
  5
1DA9
330
1AE9
100
AcDbEntity
  8
0
 62
     3
100
AcDbMText
 10
2017.933480253919
 20
792.256508766433
 30
0.0
 40
1.4
 41
0.0
 46
0.0
 71
     5
 72
     1
  1
\A1;%%C4.5
 11
0.0000000000000001
 21
1.0
 31
0.0
 73
     1
 44
1.0
  0
SOLID
  5
1DAA
330
1AE9
100
AcDbEntity
  8
0
 62
     2
100
AcDbTrace
 10
2018.800146920586
 20
803.652952939471
 30
0.0
 11
2019.266813587253
 21
803.652952939471
 31
0.0
 12
2019.033480253919
 22
805.052952939471
 32
0.0
 13
2019.033480253919
 23
805.052952939471
 33
0.0
  0
SOLID
  5
1DAB
330
1AE9
100
AcDbEntity
  8
0
 62
     2
100
AcDbTrace
 10
2018.800146920586
 20
801.9529529394711
 30
0.0
 11
2019.266813587253
 21
801.9529529394711
 31
0.0
 12
2019.033480253919
 22
800.552952939471
 32
0.0
 13
2019.033480253919
 23
800.552952939471
 33
0.0
  0
POINT
  5
1DAC
330
1AE9
100
AcDbEntity
  8
Defpoints
 62
     0
100
AcDbPoint
 10
2005.149987658655
 20
805.052952939471
 30
0.0
  0
POINT
  5
1DAD
330
1AE9
100
AcDbEntity
  8
Defpoints
 62
     0
100
AcDbPoint
 10
2005.149987658655
 20
800.552952939471
 30
0.0
  0
POINT
  5
1DAE
330
1AE9
100
AcDbEntity
  8
Defpoints
 62
     0
100
AcDbPoint
 10
2019.033480253919
 20
800.552952939471
 30
0.0
  0
ENDBLK
  5
1AEB
330
1AE9
100
AcDbEntity
  8
0
 62
   255
100
AcDbBlockEnd
  0
BLOCK
  5
1AF7
330
1AF6
100
AcDbEntity
  8
0
 62
   255
100
AcDbBlockBegin
  2
*D26
 70
     1
 10
0.0
 20
0.0
 30
0.0
  3
*D26
  1

  0
LINE
  5
1D2D
330
1AF6
100
AcDbEntity
  8
0
 62
     2
370
    -2
100
AcDbLine
 10
2010.891572732042
 20
803.5529529293343
 30
0.0
 11
2015.679805573338
 21
803.5529529293343
 31
0.0
  0
LINE
  5
1D2E
330
1AF6
100
AcDbEntity
  8
0
 62
     2
370
    -2
100
AcDbLine
 10
2010.891572732042
 20
802.0529529496078
 30
0.0
 11
2015.679805573338
 21
802.0529529496078
 31
0.0
  0
LINE
  5
1D2F
330
1AF6
100
AcDbEntity
  8
0
 62
     2
370
    -2
100
AcDbLine
 10
2015.279805573337
 20
804.9529529293343
 30
0.0
 11
2015.279805573337
 21
805.052952939471
 31
0.0
  0
LINE
  5
1D30
330
1AF6
100
AcDbEntity
  8
0
 62
     2
370
    -2
100
AcDbLine
 10
2015.279805573337
 20
805.052952939471
 30
0.0
 11
2015.279805573337
 21
806.3529529293342
 31
0.0
  0
LINE
  5
1D31
330
1AF6
100
AcDbEntity
  8
0
 62
     2
370
    -2
100
AcDbLine
 10
2015.279805573337
 20
800.6529529496079
 30
0.0
 11
2015.279805573337
 21
799.2529529496079
 31
0.0
  0
LINE
  5
1D32
330
1AF6
100
AcDbEntity
  8
0
 62
     2
370
    -2
100
AcDbLine
 10
2015.279805573337
 20
789.8723039195634
 30
0.0
 11
2015.279805573337
 21
802.0529529496078
 31
0.0
  0
MTEXT
  5
1D33
330
1AF6
100
AcDbEntity
  8
0
 62
     3
100
AcDbMText
 10
2014.179805573337
 20
791.9523039195638
 30
0.0
 40
1.4
 41
0.0
 46
0.0
 71
     5
 72
     1
  1
\A1;%%C1.5
 11
0.0000000000000001
 21
1.0
 31
0.0
 73
     1
 44
1.0
  0
LINE
  5
1D34
330
1AF6
100
AcDbEntity
  8
0
 62
     2
370
    -2
100
AcDbLine
 10
2015.279805573337
 20
803.5529529293343
 30
0.0
 11
2015.279805573337
 21
802.0529529496078
 31
0.0
  0
SOLID
  5
1D35
330
1AF6
100
AcDbEntity
  8
0
 62
     2
100
AcDbTrace
 10
2015.046472240004
 20
804.9529529293343
 30
0.0
 11
2015.513138906671
 21
804.9529529293343
 31
0.0
 12
2015.279805573337
 22
803.5529529293343
 32
0.0
 13
2015.279805573337
 23
803.5529529293343
 33
0.0
  0
SOLID
  5
1D36
330
1AF6
100
AcDbEntity
  8
0
 62
     2
100
AcDbTrace
 10
2015.046472240004
 20
800.6529529496079
 30
0.0
 11
2015.513138906671
 21
800.6529529496079
 31
0.0
 12
2015.279805573337
 22
802.0529529496078
 32
0.0
 13
2015.279805573337
 23
802.0529529496078
 33
0.0
  0
POINT
  5
1D37
330
1AF6
100
AcDbEntity
  8
Defpoints
 62
     0
100
AcDbPoint
 10
2010.891572732042
 20
803.5529529293343
 30
0.0
  0
POINT
  5
1D38
330
1AF6
100
AcDbEntity
  8
Defpoints
 62
     0
100
AcDbPoint
 10
2010.891572732042
 20
802.0529529496078
 30
0.0
  0
POINT
  5
1D39
330
1AF6
100
AcDbEntity
  8
Defpoints
 62
     0
100
AcDbPoint
 10
2015.279805573337
 20
802.0529529496078
 30
0.0
  0
ENDBLK
  5
1AF8
330
1AF6
100
AcDbEntity
  8
0
 62
   255
100
AcDbBlockEnd
  0
BLOCK
  5
1B06
330
1B05
100
AcDbEntity
  8
0
 62
   255
100
AcDbBlockBegin
  2
*D27
 70
     1
 10
0.0
 20
0.0
 30
0.0
  3
*D27
  1

  0
LINE
  5
1B9E
330
1B05
100
AcDbEntity
  8
0
 62
     2
370
    -2
100
AcDbLine
 10
2004.649987658655
 20
797.8029529394711
 30
0.0
 11
2004.649987658655
 21
783.5714740617086
 31
0.0
  0
LINE
  5
1B9F
330
1B05
100
AcDbEntity
  8
0
 62
     2
370
    -2
100
AcDbLine
 10
2003.649987658655
 20
792.302952939471
 30
0.0
 11
2003.649987658655
 21
783.5714740617086
 31
0.0
  0
LINE
  5
1BA0
330
1B05
100
AcDbEntity
  8
0
 62
     2
370
    -2
100
AcDbLine
 10
2006.049987658655
 20
783.9714740617085
 30
0.0
 11
2007.449987658655
 21
783.9714740617085
 31
0.0
  0
LINE
  5
1BA1
330
1B05
100
AcDbEntity
  8
0
 62
     2
370
    -2
100
AcDbLine
 10
2002.249987658655
 20
783.9714740617085
 30
0.0
 11
2000.849987658655
 21
783.9714740617085
 31
0.0
  0
MTEXT
  5
1BA2
330
1B05
100
AcDbEntity
  8
0
 62
     3
100
AcDbMText
 10
2001.295909717651
 20
785.1024835044868
 30
0.0
 40
1.4
 41
0.0
 46
0.0
 71
     5
 72
     1
  1
\A1;1
 73
     1
 44
1.0
  0
SOLID
  5
1BA3
330
1B05
100
AcDbEntity
  8
0
 62
     2
100
AcDbTrace
 10
2006.049987658655
 20
784.2048073950419
 30
0.0
 11
2006.049987658655
 21
783.7381407283752
 31
0.0
 12
2004.649987658655
 22
783.9714740617085
 32
0.0
 13
2004.649987658655
 23
783.9714740617085
 33
0.0
  0
SOLID
  5
1BA4
330
1B05
100
AcDbEntity
  8
0
 62
     2
100
AcDbTrace
 10
2002.249987658655
 20
784.2048073950419
 30
0.0
 11
2002.249987658655
 21
783.7381407283752
 31
0.0
 12
2003.649987658655
 22
783.9714740617085
 32
0.0
 13
2003.649987658655
 23
783.9714740617085
 33
0.0
  0
POINT
  5
1BA5
330
1B05
100
AcDbEntity
  8
Defpoints
 62
     0
100
AcDbPoint
 10
2004.649987658655
 20
797.8029529394711
 30
0.0
  0
POINT
  5
1BA6
330
1B05
100
AcDbEntity
  8
Defpoints
 62
     0
100
AcDbPoint
 10
2003.649987658655
 20
792.302952939471
 30
0.0
  0
POINT
  5
1BA7
330
1B05
100
AcDbEntity
  8
Defpoints
 62
     0
100
AcDbPoint
 10
2003.649987658655
 20
783.9714740617085
 30
0.0
  0
ENDBLK
  5
1B07
330
1B05
100
AcDbEntity
  8
0
 62
   255
100
AcDbBlockEnd
  0
BLOCK
  5
1B13
330
1B12
100
AcDbEntity
  8
0
 62
   255
100
AcDbBlockBegin
  2
*D28
 70
     1
 10
0.0
 20
0.0
 30
0.0
  3
*D28
  1

  0
LINE
  5
1BA8
330
1B12
100
AcDbEntity
  8
0
 62
     2
370
    -2
100
AcDbLine
 10
2003.649987658655
 20
792.302952939471
 30
0.0
 11
2003.649987658655
 21
780.2383506662693
 31
0.0
  0
LINE
  5
1BA9
330
1B12
100
AcDbEntity
  8
0
 62
     2
370
    -2
100
AcDbLine
 10
1971.549987658647
 20
795.102952939471
 30
0.0
 11
1971.549987658647
 21
780.2383506662693
 31
0.0
  0
LINE
  5
1BAA
330
1B12
100
AcDbEntity
  8
0
 62
     2
370
    -2
100
AcDbLine
 10
2002.249987658655
 20
780.6383506662694
 30
0.0
 11
1972.949987658648
 21
780.6383506662694
 31
0.0
  0
SOLID
  5
1BAB
330
1B12
100
AcDbEntity
  8
0
 62
     2
100
AcDbTrace
 10
2002.249987658655
 20
780.8716839996027
 30
0.0
 11
2002.249987658655
 21
780.405017332936
 31
0.0
 12
2003.649987658655
 22
780.6383506662694
 32
0.0
 13
2003.649987658655
 23
780.6383506662694
 33
0.0
  0
SOLID
  5
1BAC
330
1B12
100
AcDbEntity
  8
0
 62
     2
100
AcDbTrace
 10
1972.949987658648
 20
780.8716839996027
 30
0.0
 11
1972.949987658648
 21
780.405017332936
 31
0.0
 12
1971.549987658647
 22
780.6383506662694
 32
0.0
 13
1971.549987658647
 23
780.6383506662694
 33
0.0
  0
MTEXT
  5
1BAD
330
1B12
100
AcDbEntity
  8
0
 62
     3
100
AcDbMText
 10
1987.599987658651
 20
781.7383506662694
 30
0.0
 40
1.4
 41
0.0
 46
0.0
 71
     5
 72
     1
  1
\A1;32
 73
     1
 44
1.0
  0
POINT
  5
1BAE
330
1B12
100
AcDbEntity
  8
Defpoints
 62
     0
100
AcDbPoint
 10
2003.649987658655
 20
792.302952939471
 30
0.0
  0
POINT
  5
1BAF
330
1B12
100
AcDbEntity
  8
Defpoints
 62
     0
100
AcDbPoint
 10
1971.549987658647
 20
795.102952939471
 30
0.0
  0
POINT
  5
1BB0
330
1B12
100
AcDbEntity
  8
Defpoints
 62
     0
100
AcDbPoint
 10
1971.549987658647
 20
780.6383506662694
 30
0.0
  0
ENDBLK
  5
1B14
330
1B12
100
AcDbEntity
  8
0
 62
   255
100
AcDbBlockEnd
  0
BLOCK
  5
1B1F
330
1B1E
100
AcDbEntity
  8
0
 62
   255
100
AcDbBlockBegin
  2
*D29
 70
     1
 10
0.0
 20
0.0
 30
0.0
  3
*D29
  1

  0
LINE
  5
1BB1
330
1B1E
100
AcDbEntity
  8
0
 62
     2
370
    -2
100
AcDbLine
 10
1966.049987658641
 20
797.7029529394709
 30
0.0
 11
1966.049987658641
 21
780.2383506662693
 31
0.0
  0
LINE
  5
1BB2
330
1B1E
100
AcDbEntity
  8
0
 62
     2
370
    -2
100
AcDbLine
 10
1971.549987658647
 20
795.102952939471
 30
0.0
 11
1971.549987658647
 21
780.2383506662693
 31
0.0
  0
LINE
  5
1BB3
330
1B1E
100
AcDbEntity
  8
0
 62
     2
370
    -2
100
AcDbLine
 10
1967.44998765864
 20
780.6383506662694
 30
0.0
 11
1970.149987658647
 21
780.6383506662694
 31
0.0
  0
SOLID
  5
1BB4
330
1B1E
100
AcDbEntity
  8
0
 62
     2
100
AcDbTrace
 10
1967.44998765864
 20
780.8716839996027
 30
0.0
 11
1967.44998765864
 21
780.405017332936
 31
0.0
 12
1966.049987658641
 22
780.6383506662694
 32
0.0
 13
1966.049987658641
 23
780.6383506662694
 33
0.0
  0
SOLID
  5
1BB5
330
1B1E
100
AcDbEntity
  8
0
 62
     2
100
AcDbTrace
 10
1970.149987658647
 20
780.8716839996027
 30
0.0
 11
1970.149987658647
 21
780.405017332936
 31
0.0
 12
1971.549987658647
 22
780.6383506662694
 32
0.0
 13
1971.549987658647
 23
780.6383506662694
 33
0.0
  0
MTEXT
  5
1BB6
330
1B1E
100
AcDbEntity
  8
0
 62
     3
100
AcDbMText
 10
1968.799987658644
 20
781.7383506662694
 30
0.0
 40
1.4
 41
0.0
 46
0.0
 71
     5
 72
     1
  1
\A1;5.5
 73
     1
 44
1.0
  0
POINT
  5
1BB7
330
1B1E
100
AcDbEntity
  8
Defpoints
 62
     0
100
AcDbPoint
 10
1966.049987658641
 20
797.7029529394709
 30
0.0
  0
POINT
  5
1BB8
330
1B1E
100
AcDbEntity
  8
Defpoints
 62
     0
100
AcDbPoint
 10
1971.549987658647
 20
795.102952939471
 30
0.0
  0
POINT
  5
1BB9
330
1B1E
100
AcDbEntity
  8
Defpoints
 62
     0
100
AcDbPoint
 10
1971.549987658647
 20
780.6383506662694
 30
0.0
  0
ENDBLK
  5
1B20
330
1B1E
100
AcDbEntity
  8
0
 62
   255
100
AcDbBlockEnd
  0
BLOCK
  5
1B2B
330
1B2A
100
AcDbEntity
  8
0
 62
   255
100
AcDbBlockBegin
  2
*D30
 70
     1
 10
0.0
 20
0.0
 30
0.0
  3
*D30
  1

  0
LINE
  5
1BBA
330
1B2A
100
AcDbEntity
  8
0
 62
     2
370
    -2
100
AcDbLine
 10
1974.249987658647
 20
791.902952939471
 30
0.0
 11
1974.249987658647
 21
787.0315091261386
 31
0.0
  0
LINE
  5
1BBB
330
1B2A
100
AcDbEntity
  8
0
 62
     2
370
    -2
100
AcDbLine
 10
1972.749987658647
 20
791.902952939471
 30
0.0
 11
1972.749987658647
 21
787.0315091261386
 31
0.0
  0
LINE
  5
1BBC
330
1B2A
100
AcDbEntity
  8
0
 62
     2
370
    -2
100
AcDbLine
 10
1975.649987658648
 20
787.4315091261386
 30
0.0
 11
1977.049987658648
 21
787.4315091261386
 31
0.0
  0
LINE
  5
1BBD
330
1B2A
100
AcDbEntity
  8
0
 62
     2
370
    -2
100
AcDbLine
 10
1972.749987658647
 20
787.4315091261386
 30
0.0
 11
1971.349987658647
 21
787.4315091261386
 31
0.0
  0
LINE
  5
1BBE
330
1B2A
100
AcDbEntity
  8
0
 62
     2
370
    -2
100
AcDbLine
 10
1980.076014454049
 20
787.4315091261386
 30
0.0
 11
1974.249987658647
 21
787.4315091261386
 31
0.0
  0
MTEXT
  5
1BBF
330
1B2A
100
AcDbEntity
  8
0
 62
     3
100
AcDbMText
 10
1978.626014454049
 20
788.5315091261386
 30
0.0
 40
1.4
 41
0.0
 46
0.0
 71
     5
 72
     1
  1
\A1;1.5
 73
     1
 44
1.0
  0
LINE
  5
1BC0
330
1B2A
100
AcDbEntity
  8
0
 62
     2
370
    -2
100
AcDbLine
 10
1974.249987658647
 20
787.4315091261386
 30
0.0
 11
1972.749987658647
 21
787.4315091261386
 31
0.0
  0
SOLID
  5
1BC1
330
1B2A
100
AcDbEntity
  8
0
 62
     2
100
AcDbTrace
 10
1975.649987658648
 20
787.6648424594719
 30
0.0
 11
1975.649987658648
 21
787.1981757928052
 31
0.0
 12
1974.249987658647
 22
787.4315091261386
 32
0.0
 13
1974.249987658647
 23
787.4315091261386
 33
0.0
  0
INSERT
  5
1BC2
330
1B2A
100
AcDbEntity
  8
0
 62
     2
370
    -2
100
AcDbBlockReference
  2
_Oblique
 10
1972.749987658647
 20
787.4315091261386
 30
0.0
 41
1.4
 42
1.4
 43
1.4
  0
POINT
  5
1BC3
330
1B2A
100
AcDbEntity
  8
Defpoints
 62
     0
100
AcDbPoint
 10
1974.249987658647
 20
791.902952939471
 30
0.0
  0
POINT
  5
1BC4
330
1B2A
100
AcDbEntity
  8
Defpoints
 62
     0
100
AcDbPoint
 10
1972.749987658647
 20
791.902952939471
 30
0.0
  0
POINT
  5
1BC5
330
1B2A
100
AcDbEntity
  8
Defpoints
 62
     0
100
AcDbPoint
 10
1972.749987658647
 20
787.4315091261386
 30
0.0
  0
ENDBLK
  5
1B2C
330
1B2A
100
AcDbEntity
  8
0
 62
   255
100
AcDbBlockEnd
  0
BLOCK
  5
1B3A
330
1B39
100
AcDbEntity
  8
0
 62
   255
100
AcDbBlockBegin
  2
*D31
 70
     1
 10
0.0
 20
0.0
 30
0.0
  3
*D31
  1

  0
LINE
  5
1BC6
330
1B39
100
AcDbEntity
  8
0
 62
     2
370
    -2
100
AcDbLine
 10
1971.549987658647
 20
795.102952939471
 30
0.0
 11
1971.549987658647
 21
787.0315091261386
 31
0.0
  0
LINE
  5
1BC7
330
1B39
100
AcDbEntity
  8
0
 62
     2
370
    -2
100
AcDbLine
 10
1972.749987658647
 20
791.902952939471
 30
0.0
 11
1972.749987658647
 21
787.0315091261386
 31
0.0
  0
LINE
  5
1BC8
330
1B39
100
AcDbEntity
  8
0
 62
     2
370
    -2
100
AcDbLine
 10
1970.149987658647
 20
787.4315091261386
 30
0.0
 11
1968.749987658647
 21
787.4315091261386
 31
0.0
  0
LINE
  5
1BC9
330
1B39
100
AcDbEntity
  8
0
 62
     2
370
    -2
100
AcDbLine
 10
1972.749987658647
 20
787.4315091261386
 30
0.0
 11
1974.149987658648
 21
787.4315091261386
 31
0.0
  0
MTEXT
  5
1BCA
330
1B39
100
AcDbEntity
  8
0
 62
     3
100
AcDbMText
 10
1968.771707015376
 20
788.561808295131
 30
0.0
 40
1.4
 41
0.0
 46
0.0
 71
     5
 72
     1
  1
\A1;1.2
 73
     1
 44
1.0
  0
SOLID
  5
1BCB
330
1B39
100
AcDbEntity
  8
0
 62
     2
100
AcDbTrace
 10
1970.149987658647
 20
787.6648424594719
 30
0.0
 11
1970.149987658647
 21
787.1981757928052
 31
0.0
 12
1971.549987658647
 22
787.4315091261386
 32
0.0
 13
1971.549987658647
 23
787.4315091261386
 33
0.0
  0
INSERT
  5
1BCC
330
1B39
100
AcDbEntity
  8
0
 62
     2
370
    -2
100
AcDbBlockReference
  2
_Oblique
 10
1972.749987658647
 20
787.4315091261386
 30
0.0
 41
1.4
 42
1.4
 43
1.4
 50
180.0
  0
POINT
  5
1BCD
330
1B39
100
AcDbEntity
  8
Defpoints
 62
     0
100
AcDbPoint
 10
1971.549987658647
 20
795.102952939471
 30
0.0
  0
POINT
  5
1BCE
330
1B39
100
AcDbEntity
  8
Defpoints
 62
     0
100
AcDbPoint
 10
1972.749987658647
 20
791.902952939471
 30
0.0
  0
POINT
  5
1BCF
330
1B39
100
AcDbEntity
  8
Defpoints
 62
     0
100
AcDbPoint
 10
1972.749987658647
 20
787.4315091261386
 30
0.0
  0
ENDBLK
  5
1B3B
330
1B39
100
AcDbEntity
  8
0
 62
   255
100
AcDbBlockEnd
  0
BLOCK
  5
1DB4
330
1DB1
100
AcDbEntity
  8
0
 62
   255
100
AcDbBlockBegin
  2
A$C08716F59
 70
     0
 10
0.0
 20
0.0
 30
0.0
  3
A$C08716F59
  1

  0
LINE
  5
1DB5
330
1DB1
100
AcDbEntity
  8
0
  6
Continuous
 62
   255
100
AcDbLine
 10
0.0
 20
12.17339149400141
 30
0.0
 11
182.9999999999895
 21
12.17339149400141
 31
0.0
  0
LINE
  5
1DB6
330
1DB1
100
AcDbEntity
  8
0
  6
Continuous
 62
   255
100
AcDbLine
 10
139.4722028839473
 20
8.115594329334285
 30
0.0
 11
182.9999999999895
 21
8.115594329334271
 31
0.0
  0
LINE
  5
1DB7
330
1DB1
100
AcDbEntity
  8
0
  6
Continuous
 62
   255
100
AcDbLine
 10
139.4722028839473
 20
4.057797164667164
 30
0.0
 11
182.9999999999895
 21
4.05779716466715
 31
0.0
  0
MTEXT
  5
1DB8
330
1DB1
100
AcDbEntity
  8
0
100
AcDbMText
 10
1.226077007665935
 20
16.62833710178165
 30
0.0
 40
2.494547437295386
 41
0.0
 46
0.0
 71
     1
 72
     5
  1
General tolerances ISO 2768-1 (fine)
 73
     1
 44
1.0
  0
MTEXT
  5
1DB9
330
1DB1
100
AcDbEntity
  8
0
100
AcDbMText
 10
1.221253973245666
 20
22.7493147206207
 30
0.0
 40
2.494547437295386
 41
0.0
 46
0.0
 71
     1
 72
     5
  1
{\fISOCPEUR|b0|i0|c0|p34;\W1;Nominal dimension in mm}
  7
SLDTEXTSTYLE0
 73
     1
 44
1.0
1001
AcDbBlockRepETag
1070
     1
1071
        3
1005
0
  0
LINE
  5
1DBA
330
1DB1
100
AcDbEntity
  8
0
  6
Continuous
 62
   255
100
AcDbLine
 10
58.34685140027523
 20
24.34678298800282
 30
0.0
 11
58.34685140027523
 21
0.0000000000000142
 31
0.0
1001
AcDbBlockRepETag
1070
     1
1071
        9
1005
0
  0
LINE
  5
1DBB
330
1DB1
100
AcDbEntity
  8
0
  6
Continuous
 62
   255
100
AcDbLine
 10
0.0
 20
24.34678298800282
 30
0.0
 11
58.34685140027528
 21
24.34678298800282
 31
0.0
1001
AcDbBlockRepETag
1070
     1
1071
       10
1005
0
  0
LINE
  5
1DBC
330
1DB1
100
AcDbEntity
  8
0
  6
Continuous
 62
   255
100
AcDbLine
 10
58.34685140027523
 20
24.34678298800282
 30
0.0
 11
182.9999999999895
 21
24.34678298800282
 31
0.0
1001
AcDbBlockRepETag
1070
     1
1071
       10
1005
0
  0
LINE
  5
1DBD
330
1DB1
100
AcDbEntity
  8
0
  6
Continuous
 62
   255
100
AcDbLine
 10
79.12237616689424
 20
12.17339149400141
 30
0.0
 11
79.12237616689424
 21
24.34678298800282
 31
0.0
1001
AcDbBlockRepETag
1070
     1
1071
       14
1005
0
  0
LINE
  5
1DBE
330
1DB1
100
AcDbEntity
  8
0
  6
Continuous
 62
   255
100
AcDbLine
 10
99.89790093351338
 20
12.17339149400141
 30
0.0
 11
99.89790093351338
 21
24.34678298800282
 31
0.0
1001
AcDbBlockRepETag
1070
     1
1071
       14
1005
0
  0
MTEXT
  5
1DBF
330
1DB1
100
AcDbEntity
  8
0
100
AcDbMText
 10
168.9677353328222
 20
16.88893582326733
 30
0.0
 40
2.494547437295386
 41
0.0
 46
0.0
 71
     1
 72
     5
  1
%%p 0.3
 73
     1
 44
1.0
1001
AcDbBlockRepETag
1070
     1
1071
       24
1005
0
  0
MTEXT
  5
1DC0
330
1DB1
100
AcDbEntity
  8
0
100
AcDbMText
 10
147.9410418409381
 20
16.95985493722907
 30
0.0
 40
2.494547437295386
 41
0.0
 46
0.0
 71
     1
 72
     5
  1
%%p 0.2
 73
     1
 44
1.0
1001
AcDbBlockRepETag
1070
     1
1071
       25
1005
0
  0
MTEXT
  5
1DC1
330
1DB1
100
AcDbEntity
  8
0
100
AcDbMText
 10
126.4009074272721
 20
16.87519524493729
 30
0.0
 40
2.494547437295386
 41
0.0
 46
0.0
 71
     1
 72
     5
  1
%%p 0.15
 73
     1
 44
1.0
1001
AcDbBlockRepETag
1070
     1
1071
       26
1005
0
  0
MTEXT
  5
1DC2
330
1DB1
100
AcDbEntity
  8
0
100
AcDbMText
 10
105.9463212275484
 20
16.90112504597954
 30
0.0
 40
2.494547437295386
 41
0.0
 46
0.0
 71
     1
 72
     5
  1
%%p 0.1
 73
     1
 44
1.0
1001
AcDbBlockRepETag
1070
     1
1071
       27
1005
0
  0
MTEXT
  5
1DC3
330
1DB1
100
AcDbEntity
  8
0
100
AcDbMText
 10
84.98914242355727
 20
17.01437400608699
 30
0.0
 40
2.494547437295386
 41
0.0
 46
0.0
 71
     1
 72
     5
  1
%%p 0.05
 73
     1
 44
1.0
1001
AcDbBlockRepETag
1070
     1
1071
       28
1005
0
  0
TEXT
  5
1DC4
330
1DB1
100
AcDbEntity
  8
0
  6
Continuous
100
AcDbText
 10
164.1615107706293
 20
20.37929673764472
 30
0.0
 40
2.494547437295386
  1
400 - 1000
100
AcDbText
1001
AcDbBlockRepETag
1070
     1
1071
       37
1005
0
  0
MTEXT
  5
1DC5
330
1DB1
100
AcDbEntity
  8
0
100
AcDbMText
 10
144.158621869803
 20
22.96803362317041
 30
0.0
 40
2.494547437295386
 41
0.0
 46
0.0
 71
     1
 72
     5
  1
120 - 400
 73
     1
 44
1.0
1001
AcDbBlockRepETag
1070
     1
1071
       29
1005
0
  0
MTEXT
  5
1DC6
330
1DB1
100
AcDbEntity
  8
0
100
AcDbMText
 10
124.3756636317091
 20
22.72513565785164
 30
0.0
 40
2.494547437295386
 41
0.0
 46
0.0
 71
     1
 72
     5
  1
30 - 120
 73
     1
 44
1.0
1001
AcDbBlockRepETag
1070
     1
1071
       30
1005
0
  0
MTEXT
  5
1DC7
330
1DB1
100
AcDbEntity
  8
0
100
AcDbMText
 10
104.9462539288026
 20
22.75232551006025
 30
0.0
 40
2.494547437295386
 41
0.0
 46
0.0
 71
     1
 72
     5
  1
6 - 30
 73
     1
 44
1.0
1001
AcDbBlockRepETag
1070
     1
1071
       31
1005
0
  0
MTEXT
  5
1DC8
330
1DB1
100
AcDbEntity
  8
0
100
AcDbMText
 10
85.07950812762828
 20
22.70556959691623
 30
0.0
 40
2.494547437295386
 41
0.0
 46
0.0
 71
     1
 72
     5
  1
3 - 6
 73
     1
 44
1.0
1001
AcDbBlockRepETag
1070
     1
1071
       32
1005
0
  0
MTEXT
  5
1DC9
330
1DB1
100
AcDbEntity
  8
0
100
AcDbMText
 10
63.01858838858902
 20
22.78653418981571
 30
0.0
 40
2.494547437295386
 41
0.0
 46
0.0
 71
     1
 72
     5
  1
0.5 - 3
 73
     1
 44
1.0
1001
AcDbBlockRepETag
1070
     1
1071
       33
1005
0
  0
MTEXT
  5
1DCA
330
1DB1
100
AcDbEntity
  8
0
100
AcDbMText
 10
63.43852565896918
 20
16.8478471152647
 30
0.0
 40
2.494547437295386
 41
0.0
 46
0.0
 71
     1
 72
     5
  1
%%p 0.05
 73
     1
 44
1.0
1001
AcDbBlockRepETag
1070
     1
1071
       34
1005
0
  0
LINE
  5
1DCB
330
1DB1
100
AcDbEntity
  8
0
  6
Continuous
 62
   255
100
AcDbLine
 10
0.0
 20
18.2600872410037
 30
0.0
 11
182.9999999999897
 21
18.260087241002
 31
0.0
  0
LINE
  5
1DCC
330
1DB1
100
AcDbEntity
  8
0
  6
Continuous
 62
   255
100
AcDbLine
 10
0.0
 20
0.0
 30
0.0
 11
182.9999999999895
 21
0.0
 31
0.0
  0
LINE
  5
1DCD
330
1DB1
100
AcDbEntity
  8
0
  6
Continuous
 62
   255
100
AcDbLine
 10
0.0
 20
6.086695747002281
 30
0.0
 11
139.4722028839473
 21
6.086695747001002
 31
0.0
  0
MTEXT
  5
1DCE
330
1DB1
100
AcDbEntity
  8
0
100
AcDbMText
 10
1.201782440435636
 20
10.72252304166511
 30
0.0
 40
2.494547437295386
 41
0.0
 46
0.0
 71
     1
 72
     5
  1
{\fISOCPEUR|b0|i0|c0|p34;\W1;Shorter arm length of angle in mm}
  7
SLDTEXTSTYLE0
 73
     1
 44
1.0
1001
AcDbBlockRepETag
1070
     1
1071
        0
1005
0
  0
MTEXT
  5
1DCF
330
1DB1
100
AcDbEntity
  8
0
100
AcDbMText
 10
61.86525580137936
 20
10.6131426958143
 30
0.0
 40
2.494547437295386
 41
0.0
 46
0.0
 71
     1
 72
     5
  1
0 - 10
 73
     1
 44
1.0
1001
AcDbBlockRepETag
1070
     1
1071
       33
1005
0
  0
MTEXT
  5
1DD0
330
1DB1
100
AcDbEntity
  8
0
100
AcDbMText
 10
64.26181913627715
 20
4.674455621263291
 30
0.0
 40
2.494547437295386
 41
0.0
 46
0.0
 71
     1
 72
     5
  1
%%P 1%%D
 73
     1
 44
1.0
1001
AcDbBlockRepETag
1070
     1
1071
       34
1005
0
  0
MTEXT
  5
1DD1
330
1DB1
100
AcDbEntity
  8
0
100
AcDbMText
 10
77.03151478382711
 20
10.6131426958143
 30
0.0
 40
2.494547437295386
 41
0.0
 46
0.0
 71
     1
 72
     5
  1
10 - 50
 73
     1
 44
1.0
1001
AcDbBlockRepETag
1070
     1
1071
       33
1005
0
  0
MTEXT
  5
1DD2
330
1DB1
100
AcDbEntity
  8
0
100
AcDbMText
 10
78.88210132936956
 20
4.674455621263291
 30
0.0
 40
2.494547437295386
 41
0.0
 46
0.0
 71
     1
 72
     5
  1
%%P 0.5%%D
 73
     1
 44
1.0
1001
AcDbBlockRepETag
1070
     1
1071
       34
1005
0
  0
MTEXT
  5
1DD3
330
1DB1
100
AcDbEntity
  8
0
100
AcDbMText
 10
92.59088918373743
 20
10.6131426958143
 30
0.0
 40
2.494547437295386
 41
0.0
 46
0.0
 71
     1
 72
     5
  1
50 - 120
 73
     1
 44
1.0
1001
AcDbBlockRepETag
1070
     1
1071
       33
1005
0
  0
MTEXT
  5
1DD4
330
1DB1
100
AcDbEntity
  8
0
100
AcDbMText
 10
93.18809940139329
 20
4.674455621263291
 30
0.0
 40
2.494547437295386
 41
0.0
 46
0.0
 71
     1
 72
     5
  1
%%P 0.333%%D
 73
     1
 44
1.0
1001
AcDbBlockRepETag
1070
     1
1071
       34
1005
0
  0
MTEXT
  5
1DD5
330
1DB1
100
AcDbEntity
  8
0
100
AcDbMText
 10
107.5423679565415
 20
10.6131426958143
 30
0.0
 40
2.494547437295386
 41
0.0
 46
0.0
 71
     1
 72
     5
  1
120 - 400
 73
     1
 44
1.0
1001
AcDbBlockRepETag
1070
     1
1071
       33
1005
0
  0
MTEXT
  5
1DD6
330
1DB1
100
AcDbEntity
  8
0
100
AcDbMText
 10
109.7564886466487
 20
4.674455621263291
 30
0.0
 40
2.494547437295386
 41
0.0
 46
0.0
 71
     1
 72
     5
  1
%%P 0.166%%D
 73
     1
 44
1.0
1001
AcDbBlockRepETag
1070
     1
1071
       34
1005
0
  0
MTEXT
  5
1DD7
330
1DB1
100
AcDbEntity
  8
0
100
AcDbMText
 10
123.9025409958209
 20
10.6131426958143
 30
0.0
 40
2.494547437295386
 41
0.0
 46
0.0
 71
     1
 72
     5
  1
{\W0.9;400 - 1000}
 73
     1
 44
1.0
1001
AcDbBlockRepETag
1070
     1
1071
       33
1005
0
  0
MTEXT
  5
1DD8
330
1DB1
100
AcDbEntity
  8
0
100
AcDbMText
 10
125.3174912143491
 20
4.674455621263291
 30
0.0
 40
2.494547437295386
 41
0.0
 46
0.0
 71
     1
 72
     5
  1
%%P 0.083%%D
 73
     1
 44
1.0
1001
AcDbBlockRepETag
1070
     1
1071
       34
1005
0
  0
MTEXT
  5
1DD9
330
1DB1
100
AcDbEntity
  8
0
100
AcDbMText
 10
1.226077007665821
 20
4.82201452720912
 30
0.0
 40
2.494547437295386
 41
0.0
 46
0.0
 71
     1
 72
     5
  1
General tolerances ISO 2768-1 (fine)
 73
     1
 44
1.0
  0
LINE
  5
1DDA
330
1DB1
100
AcDbEntity
  8
0
  6
Continuous
 62
   255
100
AcDbLine
 10
74.57192169700966
 20
12.17339149400141
 30
0.0
 11
74.57192169700966
 21
0.0000000000000142
 31
0.0
1001
AcDbBlockRepETag
1070
     1
1071
        9
1005
0
  0
LINE
  5
1DDB
330
1DB1
100
AcDbEntity
  8
0
  6
Continuous
 62
   255
100
AcDbLine
 10
90.79699199374408
 20
12.17339149400141
 30
0.0
 11
90.79699199374408
 21
0.0000000000000142
 31
0.0
1001
AcDbBlockRepETag
1070
     1
1071
        9
1005
0
  0
LINE
  5
1DDC
330
1DB1
100
AcDbEntity
  8
0
  6
Continuous
 62
   255
100
AcDbLine
 10
107.0220622904785
 20
12.17339149400141
 30
0.0
 11
107.0220622904785
 21
0.0000000000000142
 31
0.0
1001
AcDbBlockRepETag
1070
     1
1071
        9
1005
0
  0
LINE
  5
1DDD
330
1DB1
100
AcDbEntity
  8
0
  6
Continuous
 62
   255
100
AcDbLine
 10
123.2471325872129
 20
12.17339149400141
 30
0.0
 11
123.2471325872129
 21
0.0000000000000142
 31
0.0
1001
AcDbBlockRepETag
1070
     1
1071
        9
1005
0
  0
LINE
  5
1DDE
330
1DB1
100
AcDbEntity
  8
0
  6
Continuous
 62
   255
100
AcDbLine
 10
139.4722028839473
 20
12.17339149400141
 30
0.0
 11
139.4722028839473
 21
0.0000000000000142
 31
0.0
1001
AcDbBlockRepETag
1070
     1
1071
        9
1005
0
  0
TOLERANCE
  5
1DDF
330
1DB1
100
AcDbEntity
  8
0
100
AcDbFcf
  3
Standard
 10
140.3018912761555
 20
10.16670485428646
 30
0.0
  1
%%v%%v%%vH1%%v%%v
1001
ACAD
1000
DSTYLE
1002
{
1070
    40
1040
0.5
1070
   140
1040
3.24
1070
   147
1040
1.62
1002
}
  0
MTEXT
  5
1DE0
330
1DB1
100
AcDbEntity
  8
0
100
AcDbMText
 10
144.6501712219154
 20
11.25538089487233
 30
0.0
 40
1.995637949836309
 41
0.0
 46
0.0
 71
     1
 72
     5
  1
.....
 73
     1
 44
1.0
1001
AcDbBlockRepETag
1070
     1
1071
       34
1005
0
  0
MTEXT
  5
1DE1
330
1DB1
100
AcDbEntity
  8
0
100
AcDbMText
 10
148.0466459170135
 20
11.25538089487233
 30
0.0
 40
1.995637949836309
 41
0.0
 46
0.0
 71
     1
 72
     5
  1
Horizontal CTQ Dimensions
 73
     1
 44
1.0
1001
AcDbBlockRepETag
1070
     1
1071
       34
1005
0
  0
TOLERANCE
  5
1DE2
330
1DB1
100
AcDbEntity
  8
0
100
AcDbFcf
  3
Standard
 10
140.3018912761555
 20
6.108907689619343
 30
0.0
  1
%%v%%v%%vV1%%v%%v
1001
ACAD
1000
DSTYLE
1002
{
1070
    40
1040
0.5
1070
   140
1040
3.24
1070
   147
1040
1.62
1002
}
  0
MTEXT
  5
1DE3
330
1DB1
100
AcDbEntity
  8
0
100
AcDbMText
 10
144.6501712219154
 20
7.197583730205209
 30
0.0
 40
1.995637949836309
 41
0.0
 46
0.0
 71
     1
 72
     5
  1
.....
 73
     1
 44
1.0
1001
AcDbBlockRepETag
1070
     1
1071
       34
1005
0
  0
MTEXT
  5
1DE4
330
1DB1
100
AcDbEntity
  8
0
100
AcDbMText
 10
148.0466459170135
 20
7.197583730205209
 30
0.0
 40
1.995637949836309
 41
0.0
 46
0.0
 71
     1
 72
     5
  1
Vertical CTQ Dimensions
 73
     1
 44
1.0
1001
AcDbBlockRepETag
1070
     1
1071
       34
1005
0
  0
TOLERANCE
  5
1DE5
330
1DB1
100
AcDbEntity
  8
0
100
AcDbFcf
  3
Standard
 10
140.3018912761555
 20
2.051110524952221
 30
0.0
  1
%%v%%v%%vS1%%v%%v
1001
ACAD
1000
DSTYLE
1002
{
1070
    40
1040
0.5
1070
   140
1040
3.24
1070
   147
1040
1.62
1002
}
  0
MTEXT
  5
1DE6
330
1DB1
100
AcDbEntity
  8
0
100
AcDbMText
 10
144.6501712219154
 20
3.139786565538088
 30
0.0
 40
1.995637949836309
 41
0.0
 46
0.0
 71
     1
 72
     5
  1
.....
 73
     1
 44
1.0
1001
AcDbBlockRepETag
1070
     1
1071
       34
1005
0
  0
MTEXT
  5
1DE7
330
1DB1
100
AcDbEntity
  8
0
100
AcDbMText
 10
148.0466459170135
 20
3.139786565538088
 30
0.0
 40
1.995637949836309
 41
0.0
 46
0.0
 71
     1
 72
     5
  1
GD&T & Other Features
 73
     1
 44
1.0
1001
AcDbBlockRepETag
1070
     1
1071
       34
1005
0
  0
LINE
  5
1DE8
330
1DB1
100
AcDbEntity
  8
0
  6
Continuous
 62
   255
100
AcDbLine
 10
120.6734257001324
 20
12.17339149400141
 30
0.0
 11
120.6734257001324
 21
24.34678298800282
 31
0.0
1001
AcDbBlockRepETag
1070
     1
1071
       14
1005
0
  0
LINE
  5
1DE9
330
1DB1
100
AcDbEntity
  8
0
  6
Continuous
 62
   255
100
AcDbLine
 10
141.4489504667515
 20
12.17339149400141
 30
0.0
 11
141.4489504667515
 21
24.34678298800282
 31
0.0
1001
AcDbBlockRepETag
1070
     1
1071
       14
1005
0
  0
LINE
  5
1DEA
330
1DB1
100
AcDbEntity
  8
0
  6
Continuous
 62
   255
100
AcDbLine
 10
162.2244752333704
 20
12.17339149400141
 30
0.0
 11
162.2244752333704
 21
24.34678298800282
 31
0.0
1001
AcDbBlockRepETag
1070
     1
1071
       14
1005
0
  0
ENDBLK
  5
1DEB
330
1DB1
100
AcDbEntity
  8
0
 62
   255
100
AcDbBlockEnd
  0
BLOCK
  5
1DEF
330
1DEC
100
AcDbEntity
  8
0
100
AcDbBlockBegin
  2
A$C058C21FF
 70
     0
 10
0.0
 20
0.0
 30
0.0
  3
A$C058C21FF
  1

  0
LINE
  5
1DF0
330
1DEC
100
AcDbEntity
  8
0
  6
Continuous
 62
   255
100
AcDbLine
 10
392.9999664095999
 20
-277.0
 30
0.0
 11
392.9999664095999
 21
0.0
 31
0.0
  0
LINE
  5
1DF1
330
1DEC
100
AcDbEntity
  8
0
  6
Continuous
 62
   255
100
AcDbLine
 10
10.0
 20
-277.0
 30
0.0
 11
392.9999664095999
 21
-277.0
 31
0.0
  0
LINE
  5
1DF2
330
1DEC
100
AcDbEntity
  8
0
  6
Continuous
 62
   255
100
AcDbLine
 10
0.0
 20
0.0
 30
0.0
 11
0.0
 21
-222.0000000000001
 31
0.0
  0
LINE
  5
1DF3
330
1DEC
100
AcDbEntity
  8
0
  6
Continuous
 62
   255
100
AcDbLine
 10
0.0
 20
0.0
 30
0.0
 11
392.9999664095999
 21
0.0
 31
0.0
  0
LINE
  5
1DF4
330
1DEC
100
AcDbEntity
  8
1
 62
     2
100
AcDbLine
 10
212.9999664095992
 20
-240.7736213082135
 30
0.0
 11
212.9999664095992
 21
-233.1532223398645
 31
0.0
1001
AcDbBlockRepETag
1070
     1
1071
     2034
1005
0
  0
LINE
  5
1DF5
330
1DEC
100
AcDbEntity
  8
1
 62
     2
100
AcDbLine
 10
377.9999664095851
 20
-240.7736213082135
 30
0.0
 11
212.9999664095992
 21
-240.7736213082135
 31
0.0
1001
AcDbBlockRepETag
1070
     1
1071
     2035
1005
0
  0
LINE
  5
1DF6
330
1DEC
100
AcDbEntity
  8
1
 62
     2
100
AcDbLine
 10
377.9999664095851
 20
-233.1532223398645
 30
0.0
 11
377.9999664095851
 21
-240.7736213082135
 31
0.0
1001
AcDbBlockRepETag
1070
     1
1071
     2036
1005
0
  0
LINE
  5
1DF7
330
1DEC
100
AcDbEntity
  8
1
 62
     2
100
AcDbLine
 10
212.9999664095992
 20
-233.1532223398645
 30
0.0
 11
377.9999664095851
 21
-233.1532223398645
 31
0.0
1001
AcDbBlockRepETag
1070
     1
1071
     2037
1005
0
  0
TEXT
  5
1DF8
330
1DEC
100
AcDbEntity
  8
1
 62
     3
100
AcDbText
 10
214.4930914539439
 20
-238.5485951401706
 30
0.0
 40
3.299999999999733
  1
Technology: Description - no. x.xxx.xx.xxxx
100
AcDbText
1001
AcDbBlockRepETag
1070
     1
1071
     2042
1005
0
  0
LINE
  5
1DF9
330
1DEC
100
AcDbEntity
  8
0
  6
Continuous
 62
   255
100
AcDbLine
 10
10.0
 20
-222.0
 30
0.0
 11
10.0
 21
-277.0
 31
0.0
1001
AcDbBlockRepETag
1070
     1
1071
     1946
1005
0
  0
LINE
  5
1DFA
330
1DEC
100
AcDbEntity
  8
0
  6
Continuous
 62
   255
100
AcDbLine
 10
10.0
 20
-222.0
 30
0.0
 11
0.0
 21
-222.0
 31
0.0
  0
TEXT
  5
1DFB
330
1DEC
100
AcDbEntity
  8
1
 62
     4
100
AcDbText
 10
2.500000000000001
 20
-237.5000000000001
 30
0.0
 40
5.0
  1
Drg. No.
 50
270.0
 72
     1
 11
5.0
 21
-249.5000000000001
 31
0.0
100
AcDbText
 73
     2
  0
LINE
  5
1DFC
330
1DEC
100
AcDbEntity
  8
0
  6
CENTER
 62
     2
 48
0.2
370
     9
100
AcDbLine
 10
386.4999681855563
 20
-259.423144560453
 30
0.0
 11
386.4999681855563
 21
-252.4231464730208
 31
0.0
1001
AcDbBlockRepETag
1070
     1
1071
        1
1005
0
  0
LINE
  5
1DFD
330
1DEC
100
AcDbEntity
  8
0
  6
Continuous
 62
   255
100
AcDbLine
 10
383.8712940050734
 20
-262.0000040983596
 30
0.0
 11
383.8712940050734
 21
-273.0000010928959
 31
0.0
1001
AcDbBlockRepETag
1070
     1
1071
        5
1005
0
  0
LINE
  5
1DFE
330
1DEC
100
AcDbEntity
  8
0
  6
CENTER
 62
     2
 48
0.2
370
     9
100
AcDbLine
 10
371.4999722839166
 20
-255.9231455167369
 30
0.0
 11
380.4999698249001
 21
-255.9231455167369
 31
0.0
1001
AcDbBlockRepETag
1070
     1
1071
        9
1005
0
  0
LINE
  5
1DFF
330
1DEC
100
AcDbEntity
  8
0
  6
Continuous
 62
   255
100
AcDbLine
 10
379.9999699615125
 20
-252.8231463637312
 30
0.0
 11
371.9999721473041
 21
-254.4231459265728
 31
0.0
1001
AcDbBlockRepETag
1070
     1
1071
       10
1005
0
  0
LINE
  5
1E00
330
1DEC
100
AcDbEntity
  8
0
  6
Continuous
 62
   255
100
AcDbLine
 10
379.9999699615125
 20
-259.0231446697427
 30
0.0
 11
379.9999699615125
 21
-252.8231463637312
 31
0.0
1001
AcDbBlockRepETag
1070
     1
1071
       11
1005
0
  0
LINE
  5
1E01
330
1DEC
100
AcDbEntity
  8
0
  6
Continuous
 62
   255
100
AcDbLine
 10
371.9999721473041
 20
-257.423145106901
 30
0.0
 11
379.9999699615125
 21
-259.0231446697427
 31
0.0
1001
AcDbBlockRepETag
1070
     1
1071
       12
1005
0
  0
LINE
  5
1E02
330
1DEC
100
AcDbEntity
  8
0
  6
Continuous
 62
   255
100
AcDbLine
 10
371.9999721473041
 20
-254.4231459265728
 30
0.0
 11
371.9999721473041
 21
-257.423145106901
 31
0.0
1001
AcDbBlockRepETag
1070
     1
1071
       13
1005
0
  0
LINE
  5
1E03
330
1DEC
100
AcDbEntity
  8
0
  6
Continuous
 62
   255
100
AcDbLine
 10
352.9999773385603
 20
-262.0000040983596
 30
0.0
 11
352.9999773385601
 21
-250.0008059763035
 31
0.0
1001
AcDbBlockRepETag
1070
     1
1071
       19
1005
0
  0
LINE
  5
1E04
330
1DEC
100
AcDbEntity
  8
0
  6
Continuous
 62
   255
100
AcDbLine
 10
318.9999866281746
 20
-262.0000040983596
 30
0.0
 11
318.9999866281746
 21
-273.0000010928959
 31
0.0
1001
AcDbBlockRepETag
1070
     1
1071
       20
1005
0
  0
LINE
  5
1E05
330
1DEC
100
AcDbEntity
  8
0
  6
Continuous
 62
   255
100
AcDbLine
 10
352.9999773385601
 20
-262.0000040983594
 30
0.0
 11
392.9999664096001
 21
-262.0000040983596
 31
0.0
1001
AcDbBlockRepETag
1070
     1
1071
       21
1005
0
  0
LINE
  5
1E06
330
1DEC
100
AcDbEntity
  8
0
  6
Continuous
 62
   255
100
AcDbLine
 10
245.0000068467473
 20
-262.0000040983596
 30
0.0
 11
245.0000068467473
 21
-273.0000010928959
 31
0.0
1001
AcDbBlockRepETag
1070
     1
1071
       22
1005
0
  0
LINE
  5
1E07
330
1DEC
100
AcDbEntity
  8
0
  6
Continuous
 62
   255
100
AcDbLine
 10
257.6666700525782
 20
-256.0008059763035
 30
0.0
 11
257.6666700525779
 21
-273.0000010928959
 31
0.0
1001
AcDbBlockRepETag
1070
     1
1071
       22
1005
0
  0
LINE
  5
1E08
330
1DEC
100
AcDbEntity
  8
0
  6
Continuous
 62
   255
100
AcDbLine
 10
210.000016409587
 20
-233.1532223398645
 30
0.0
 11
210.000016409587
 21
-277.0
 31
0.0
1001
AcDbBlockRepETag
1070
     1
1071
       26
1005
0
  0
LINE
  5
1E09
330
1DEC
100
AcDbEntity
  8
0
  6
Continuous
 62
   255
100
AcDbLine
 10
367.9999732402
 20
-250.0008059763035
 30
0.0
 11
367.9999732402
 21
-262.0000040983596
 31
0.0
1001
AcDbBlockRepETag
1070
     1
1071
       27
1005
0
  0
LINE
  5
1E0A
330
1DEC
100
AcDbEntity
  8
0
  6
Continuous
 62
   255
100
AcDbLine
 10
185.0000232401867
 20
-257.5000053278675
 30
0.0
 11
185.0000232401869
 21
-277.0
 31
0.0
1001
AcDbBlockRepETag
1070
     1
1071
       29
1005
0
  0
LINE
  5
1E0B
330
1DEC
100
AcDbEntity
  8
0
  6
Continuous
 62
     2
370
     9
100
AcDbLine
 10
27.00001640958703
 20
-266.5000028688518
 30
0.0
 11
210.000016409587
 21
-266.5000028688518
 31
0.0
1001
AcDbBlockRepETag
1070
     1
1071
       30
1005
0
  0
LINE
  5
1E0C
330
1DEC
100
AcDbEntity
  8
0
  6
Continuous
 62
   255
100
AcDbLine
 10
27.00001640958703
 20
-271.0000016393439
 30
0.0
 11
210.000016409587
 21
-271.0000016393439
 31
0.0
1001
AcDbBlockRepETag
1070
     1
1071
       31
1005
0
  0
LINE
  5
1E0D
330
1DEC
100
AcDbEntity
  8
0
  6
Continuous
 62
   255
100
AcDbLine
 10
27.00001640958703
 20
-277.0
 30
0.0
 11
27.00001640958681
 21
-233.1532223398645
 31
0.0
1001
AcDbBlockRepETag
1070
     1
1071
       32
1005
0
  0
LINE
  5
1E0E
330
1DEC
100
AcDbEntity
  8
0
  6
Continuous
 62
     2
370
     9
100
AcDbLine
 10
210.000016409587
 20
-262.0000040983596
 30
0.0
 11
27.00001640958703
 21
-262.0000040983596
 31
0.0
1001
AcDbBlockRepETag
1070
     1
1071
       33
1005
0
  0
LINE
  5
1E0F
330
1DEC
100
AcDbEntity
  8
0
  6
Continuous
 62
   255
100
AcDbLine
 10
160.0000300707861
 20
-257.5000053278675
 30
0.0
 11
160.0000300707863
 21
-277.0
 31
0.0
1001
AcDbBlockRepETag
1070
     1
1071
       34
1005
0
  0
LINE
  5
1E10
330
1DEC
100
AcDbEntity
  8
0
  6
Continuous
 62
   255
100
AcDbLine
 10
135.0000369013846
 20
-257.5000053278675
 30
0.0
 11
135.0000369013846
 21
-277.0
 31
0.0
1001
AcDbBlockRepETag
1070
     1
1071
       35
1005
0
  0
LINE
  5
1E11
330
1DEC
100
AcDbEntity
  8
0
  6
Continuous
 62
   255
100
AcDbLine
 10
33.90006452432795
 20
-257.5000053278675
 30
0.0
 11
33.90006452432795
 21
-277.0
 31
0.0
1001
AcDbBlockRepETag
1070
     1
1071
       36
1005
0
  0
LINE
  5
1E12
330
1DEC
100
AcDbEntity
  8
0
  6
CENTER
 62
     2
 48
0.2
370
     9
100
AcDbLine
 10
382.8999691691633
 20
-255.9231455167369
 30
0.0
 11
389.9999672292731
 21
-255.9231455167369
 31
0.0
1001
AcDbBlockRepETag
1070
     1
1071
       37
1005
0
  0
LINE
  5
1E13
330
1DEC
100
AcDbEntity
  8
0
  6
Continuous
 62
   255
100
AcDbLine
 10
392.9999664096001
 20
-273.0000010928959
 30
0.0
 11
210.000016409587
 21
-273.0000010928959
 31
0.0
1001
AcDbBlockRepETag
1070
     1
1071
       38
1005
0
  0
CIRCLE
  5
1E14
330
1DEC
100
AcDbEntity
  8
0
  6
Continuous
 62
   255
100
AcDbCircle
 10
386.4999681855563
 20
-255.9231455167369
 30
0.0
 40
3.099999153005696
1001
AcDbBlockRepETag
1070
     1
1071
       39
1005
0
  0
CIRCLE
  5
1E15
330
1DEC
100
AcDbEntity
  8
0
  6
Continuous
 62
   255
100
AcDbCircle
 10
386.4999681855563
 20
-255.9231455167369
 30
0.0
 40
1.499999590164046
1001
AcDbBlockRepETag
1070
     1
1071
       40
1005
0
  0
MTEXT
  5
1E16
330
1DEC
100
AcDbEntity
  8
0
 62
   255
100
AcDbMText
 10
356.8782500675213
 20
-252.7695148487513
 30
0.0
 40
1.999999453552061
 41
0.0
 46
0.0
 71
     1
 72
     5
  1
Scale
 73
     1
 44
1.0
1001
AcDbBlockRepETag
1070
     1
1071
       46
1005
0
  0
MTEXT
  5
1E17
330
1DEC
100
AcDbEntity
  8
0
 62
   255
100
AcDbMText
 10
384.7939704696303
 20
-264.9195248175762
 30
0.0
 40
4.508695652173912
 41
0.0
 46
0.0
 71
     1
 72
     5
  1
{\fISOCPEUR|b0|i0|c0|p34;\W1;A3}
  7
SLDTEXTSTYLE0
 73
     1
 44
1.0
1001
AcDbBlockRepETag
1070
     1
1071
       50
1005
0
  0
TEXT
  5
1E18
330
1DEC
100
AcDbEntity
  8
0
  6
Continuous
 62
   255
100
AcDbText
 10
213.5367887974839
 20
-275.600626952933
 30
0.0
 40
1.72391304347826
  1
This drawing remains our property. Without written approval it may not be copied, reproduced or communicated or made available to third parties.
100
AcDbText
1001
AcDbBlockRepETag
1070
     1
1071
       51
1005
0
  0
MTEXT
  5
1E19
330
1DEC
100
AcDbEntity
  8
0
 62
   255
100
AcDbMText
 10
28.38043281742353
 20
-272.4012695934838
 30
0.0
 40
1.999999453552061
 41
0.0
 46
0.0
 71
     1
 72
     5
  1
No.
 73
     1
 44
1.0
1001
AcDbBlockRepETag
1070
     1
1071
       52
1005
0
  0
MTEXT
  5
1E1A
330
1DEC
100
AcDbEntity
  8
0
 62
   255
100
AcDbMText
 10
62.8916152131303
 20
-272.5568974675624
 30
0.0
 40
1.999999453552061
 41
0.0
 46
0.0
 71
     1
 72
     5
  1
Modifications
 73
     1
 44
1.0
1001
AcDbBlockRepETag
1070
     1
1071
       53
1005
0
  0
MTEXT
  5
1E1B
330
1DEC
100
AcDbEntity
  8
0
 62
   255
100
AcDbMText
 10
113.8766488820463
 20
-272.4090513971577
 30
0.0
 40
1.999999453552061
 41
0.0
 46
0.0
 71
     1
 72
     5
  1
Communication
 73
     1
 44
1.0
1001
AcDbBlockRepETag
1070
     1
1071
       54
1005
0
  0
MTEXT
  5
1E1C
330
1DEC
100
AcDbEntity
  8
0
 62
   255
100
AcDbMText
 10
143.9645104743263
 20
-272.4579818509886
 30
0.0
 40
1.999999453552061
 41
0.0
 46
0.0
 71
     1
 72
     5
  1
Drawn
 73
     1
 44
1.0
1001
AcDbBlockRepETag
1070
     1
1071
       55
1005
0
  0
MTEXT
  5
1E1D
330
1DEC
100
AcDbEntity
  8
0
 62
   255
100
AcDbMText
 10
191.619644925147
 20
-272.537497781863
 30
0.0
 40
1.999999453552061
 41
0.0
 46
0.0
 71
     1
 72
     5
  1
Approved
 73
     1
 44
1.0
1001
AcDbBlockRepETag
1070
     1
1071
       56
1005
0
  0
MTEXT
  5
1E1E
330
1DEC
100
AcDbEntity
  8
0
 62
   255
100
AcDbMText
 10
336.1114445882952
 20
-264.9508328035223
 30
0.0
 40
4.508695652173912
 41
0.0
 46
0.0
 71
     1
 72
     5
  1
{\fISOCPEUR|b0|i0|c0|p34;\W1;Drg. No.}
  7
SLDTEXTSTYLE0
 73
     1
 44
1.0
1001
AcDbBlockRepETag
1070
     1
1071
       58
1005
0
  0
MTEXT
  5
1E1F
330
1DEC
100
AcDbEntity
  8
0
 62
   255
100
AcDbMText
 10
266.8224219787517
 20
-264.9557813549702
 30
0.0
 40
4.508695652173912
 41
0.0
 46
0.0
 71
     1
 72
     5
  1
{\fISOCPEUR|b0|i0|c0|p34;\W1;Description}
  7
SLDTEXTSTYLE0
 73
     1
 44
1.0
1001
AcDbBlockRepETag
1070
     1
1071
       59
1005
0
  0
MTEXT
  5
1E20
330
1DEC
100
AcDbEntity
  8
0
 62
   255
100
AcDbMText
 10
358.084726654057
 20
-256.6405790150835
 30
0.0
 40
2.499999316940077
 41
0.0
 46
0.0
 71
     1
 72
     5
  1
X:1
 73
     1
 44
1.0
1001
AcDbBlockRepETag
1070
     1
1071
       60
1005
0
  0
MTEXT
  5
1E21
330
1DEC
100
AcDbEntity
  8
0
 62
     1
100
AcDbMText
 10
214.8544231156891
 20
-262.8294794084584
 30
0.0
 40
3.999998907104123
 41
0.0
 46
0.0
 71
     1
 72
     5
  1
{\fISOCPEUR|b0|i0|c0|p34;\W1;Portescap}
  7
SLDTEXTSTYLE0
 73
     1
 44
1.0
1001
AcDbBlockRepETag
1070
     1
1071
       65
1005
0
  0
LINE
  5
1E22
330
1DEC
100
AcDbEntity
  8
0
  6
Continuous
 62
   255
100
AcDbLine
 10
110.0000437319843
 20
-257.5000053278675
 30
0.0
 11
110.0000437319845
 21
-277.0
 31
0.0
1001
AcDbBlockRepETag
1070
     1
1071
       66
1005
0
  0
MTEXT
  5
1E23
330
1DEC
100
AcDbEntity
  8
0
 62
   255
100
AcDbMText
 10
167.3053807416859
 20
-272.4579818509886
 30
0.0
 40
1.999999453552061
 41
0.0
 46
0.0
 71
     1
 72
     5
  1
Checked
 73
     1
 44
1.0
1001
AcDbBlockRepETag
1070
     1
1071
       67
1005
0
  0
LINE
  5
1E24
330
1DEC
100
AcDbEntity
  8
0
  6
Continuous
 62
   255
100
AcDbLine
 10
374.7426216005465
 20
-262.0000040983596
 30
0.0
 11
374.7426216005463
 21
-277.0
 31
0.0
1001
AcDbBlockRepETag
1070
     1
1071
        5
1005
0
  0
MTEXT
  5
1E25
330
1DEC
100
AcDbEntity
  8
0
 62
   255
100
AcDbMText
 10
376.1389629657326
 20
-264.9195248175762
 30
0.0
 40
4.508695652173912
 41
0.0
 46
0.0
 71
     1
 72
     5
  1
{\fISOCPEUR|b0|i0|c0|p34;\W1;00}
  7
SLDTEXTSTYLE0
 73
     1
 44
1.0
1001
AcDbBlockRepETag
1070
     1
1071
       50
1005
0
  0
TEXT
  5
1E26
330
1DEC
100
AcDbEntity
  8
0
  6
Continuous
 62
   255
100
AcDbText
 10
377.1554068563314
 20
-275.600626952933
 30
0.0
 40
1.72391304347826
  1
Sheet 1 of 1
100
AcDbText
1001
AcDbBlockRepETag
1070
     1
1071
       51
1005
0
  0
INSERT
  5
1E27
330
1DEC
100
AcDbEntity
  8
0
 62
   255
100
AcDbBlockReference
  2
A$C08716F59
 10
27.00001640958681
 20
-257.5000053278673
 30
0.0
  0
LINE
  5
1E28
330
1DEC
100
AcDbEntity
  8
0
  6
Continuous
 62
   255
100
AcDbLine
 10
245.0000068467473
 20
-269.0000021857919
 30
0.0
 11
210.000016409587
 21
-269.0000021857919
 31
0.0
1001
AcDbBlockRepETag
1070
     1
1071
       38
1005
0
  0
TEXT
  5
1E29
330
1DEC
100
AcDbEntity
  8
0
  6
Continuous
 62
   255
100
AcDbText
 10
213.5367887974839
 20
-271.7908875797558
 30
0.0
 40
1.72391304347826
  1
PI/R&D/F/18 Rev 00
100
AcDbText
1001
AcDbBlockRepETag
1070
     1
1071
       51
1005
0
  0
MTEXT
  5
1E2A
330
1DEC
100
AcDbEntity
  8
0
  6
Continuous
 62
   255
100
AcDbMText
 10
211.8594586296933
 20
-254.9213169641921
 30
0.0
 40
2.499999316940077
 41
122.5201940634145
 46
0.0
 71
     7
 72
     1
  1
All dimensions and tolerances are in mm unless & otherwise specified.
  7
style1
 73
     1
 44
1.0
1001
AcDbBlockRepETag
1070
     1
1071
       64
1005
0
  0
LINE
  5
1E2B
330
1DEC
100
AcDbEntity
  8
0
  6
Continuous
 62
   255
100
AcDbLine
 10
210.000016409587
 20
-262.0008059763035
 30
0.0
 11
257.6666700525782
 21
-262.0008059763035
 31
0.0
1001
AcDbBlockRepETag
1070
     1
1071
        3
1005
0
  0
LINE
  5
1E2C
330
1DEC
100
AcDbEntity
  8
0
  6
Continuous
 62
   255
100
AcDbLine
 10
210.000016409587
 20
-250.0008059763035
 30
0.0
 11
392.9999664096001
 21
-250.0008059763035
 31
0.0
1001
AcDbBlockRepETag
1070
     1
1071
        3
1005
0
  0
LINE
  5
1E2D
330
1DEC
100
AcDbEntity
  8
0
  6
Continuous
 62
   255
100
AcDbLine
 10
210.000016409587
 20
-256.0008059763035
 30
0.0
 11
352.9999773385601
 21
-256.0008059763033
 31
0.0
1001
AcDbBlockRepETag
1070
     1
1071
        3
1005
0
  0
ENDBLK
  5
1E2E
330
1DEC
100
AcDbEntity
  8
0
100
AcDbBlockEnd
  0
BLOCK
  5
1E30
330
1E2F
100
AcDbEntity
  8
0
 62
   255
100
AcDbBlockBegin
  2
_Dot
 70
     0
 10
0.0
 20
0.0
 30
0.0
  3
_Dot
  1

  0
LWPOLYLINE
  5
1E31
330
1E2F
100
AcDbEntity
  8
0
  6
ByBlock
 62
     0
100
AcDbPolyline
 90
        2
 70
     1
 43
0.5
 10
-0.25
 20
0.0
 42
1.0
 10
0.25
 20
0.0
 42
1.0
  0
LINE
  5
1E32
330
1E2F
100
AcDbEntity
  8
0
  6
ByBlock
 62
     0
370
    -2
100
AcDbLine
 10
-0.5
 20
0.0
 30
0.0
 11
-1.0
 21
0.0
 31
0.0
  0
ENDBLK
  5
1E33
330
1E2F
100
AcDbEntity
  8
0
 62
   255
100
AcDbBlockEnd
  0
BLOCK
  5
1E37
330
1E34
100
AcDbEntity
  8
0
 62
     1
100
AcDbBlockBegin
  2
A$C53560A2D
 70
     0
 10
0.0
 20
0.0
 30
0.0
  3
A$C53560A2D
  1

  0
HATCH
  5
1E38
330
1E34
100
AcDbEntity
  8
0
 62
     1
100
AcDbHatch
 10
0.0
 20
0.0
 30
0.0
210
0.0
220
0.0
230
1.0
  2
SOLID
 70
     1
 71
     0
 91
        1
 92
        7
 72
     0
 73
     1
 93
        8
 10
10.40639350736074
 20
-3.429580398453509
 10
9.8090548631219
 20
-3.429580398453495
 10
10.52161847102905
 20
-4.26222404987655
 10
9.562357823425486
 20
-5.017847907603865
 10
-0.1711005509629331
 20
-5.017847907603837
 10
-0.2076899027981653
 20
-5.086662246294196
 10
10.08230402145517
 20
-5.08666224629421
 10
11.12297052199432
 20
-4.266913789282654
 97
        0
 75
     0
 76
     1
 47
0.0237982239116982
 98
        1
 10
10.7687455105808
 20
-4.08916775948434
450
        0
451
        0
460
0.0
461
0.0
452
        0
462
0.0
453
        0
470

1001
ACAD
1010
0.0
1020
0.0
1030
0.0
  0
HATCH
  5
1E39
330
1E34
100
AcDbEntity
  8
0
 62
     3
100
AcDbHatch
 10
0.0
 20
0.0
 30
0.0
210
0.0
220
0.0
230
1.0
  2
SOLID
 70
     1
 71
     0
 91
       11
 92
        7
 72
     0
 73
     1
 93
        7
 10
1.491379020905242
 20
-2.772946682047759
 10
0.995217842298814
 20
-2.772946682047745
 10
-0.0788238170088675
 20
-4.792918690406423
 10
0.3668365951625674
 20
-4.792918690406409
 10
1.182574505556942
 20
-3.200386665146865
 10
1.390757209580954
 20
-4.792918690406395
 10
1.800184269306669
 20
-4.792918690406423
 97
        0
 92
        7
 72
     1
 73
     1
 93
       17
 10
3.143752721671432
 20
-3.44625859844703
 42
0.0
 10
2.816525880617575
 20
-3.446258598447073
 42
0.0
 10
2.903841276975811
 20
-3.02813051420415
 42
0.0
 10
2.485710676876635
 20
-3.16864853873723
 42
0.0
 10
2.427738889498414
 20
-3.44625859844703
 42
0.0
 10
2.156102845410657
 20
-3.44625859844703
 42
0.0
 10
2.108120116639497
 20
-3.699877260551375
 42
0.0
 10
2.37477709420176
 20
-3.699877260551375
 42
0.0
 10
2.197341484950982
 20
-4.54956488114216
 42
0.2314303255157967
 10
2.229132535142696
 20
-4.7375738797856
 42
0.2425677700453667
 10
2.562303738103139
 20
-4.840349188736823
 42
0.0
 10
2.853955581357979
 20
-4.793092213000164
 42
0.0
 10
2.904529503834567
 20
-4.550908380596794
 42
0.0
 10
2.695000291198482
 20
-4.550908380596808
 42
-0.4760549668863254
 10
2.615472085050157
 20
-4.409046856609066
 42
0.0
 10
2.763564085320922
 20
-3.699877260551403
 42
0.0
 10
3.095769992900443
 20
-3.699877260551403
 42
0.0
 97
        0
 92
        7
 72
     1
 73
     1
 93
       15
 10
3.902783104379238
 20
-3.703880319999356
 42
-0.2432435292258966
 10
4.1605810466001
 20
-3.728705991916442
 42
-0.2718544080322752
 10
4.214411423471688
 20
-3.906094591215776
 42
0.0
 10
4.02511501860107
 20
-4.8125801186696
 42
0.0
 10
4.425338595686184
 20
-4.812580118669615
 42
0.0
 10
4.618640162861424
 20
-3.843814600173104
 42
0.1442413094369809
 10
4.566882367577647
 20
-3.577394862249789
 42
0.1968270941560047
 10
4.312159611171807
 20
-3.438006898026017
 42
0.1671955009294615
 10
3.972511122600565
 20
-3.482973954396257
 42
0.0984224330473735
 10
3.770569059989043
 20
-3.640211074021848
 42
0.0
 10
3.934493518721126
 20
-2.855224430784346
 42
0.0
 10
3.53819104308144
 20
-2.85522443078436
 42
0.0
 10
3.129447181708883
 20
-4.812580118669629
 42
0.0
 10
3.525749657348569
 20
-4.812580118669629
 42
0.0
 10
3.717837455778578
 20
-3.892727417841854
 42
-0.1681505465182262
 97
        0
 92
        7
 72
     0
 73
     1
 93
        4
 10
5.6096725110404
 20
-2.855224430784303
 10
5.213370035400828
 20
-2.855224430784332
 10
4.804626174028157
 20
-4.8125801186696
 10
5.200928649667844
 20
-4.812580118669572
 97
        0
 92
        7
 72
     1
 73
     1
 93
       11
 10
6.952147240856731
 20
-3.566721980052093
 42
0.2003410362329726
 10
6.566896274917382
 20
-3.394380580118323
 42
0.1459636918781203
 10
6.221479418630622
 20
-3.437237506523857
 42
0.1329827864341785
 10
5.809957292924593
 20
-3.742009934847047
 42
0.1181218657170001
 10
5.613713825998559
 20
-4.246632228047602
 42
0.1453361361738481
 10
5.692211359379541
 20
-4.650330645507111
 42
0.1097723388638702
 10
5.927703226469532
 20
-4.840965604516455
 42
0.0801939741507773
 10
6.283139453583146
 20
-4.8800657463362
 42
0.1155273130323037
 10
6.714757499090808
 20
-4.716668932821008
 42
0.1356436716811775
 10
6.998631608933408
 20
-4.369984603229582
 42
0.1011385320105559
 10
7.113012828394801
 20
-3.973673703014938
 42
0.236317674944661
 97
        0
 92
       22
 72
     1
 73
     1
 93
       10
 10
6.677527194323886
 20
-4.138839615245061
 42
-0.0759023682782946
 10
6.566982042139159
 20
-4.423877995135413
 42
-0.2200816587143609
 10
6.300965840747892
 20
-4.599996581122823
 42
-0.1552209024106451
 10
6.095458780820706
 20
-4.534235363900407
 42
-0.2297088204471921
 10
6.019242210293441
 20
-4.338318807139089
 42
-0.0336344069359854
 10
6.05840294270996
 20
-4.066696381694796
 42
-0.0476503727704049
 10
6.143663624704515
 20
-3.862071844709262
 42
-0.1164757194866423
 10
6.339107330614126
 20
-3.691551275783936
 42
-0.2102767852864467
 10
6.596864975328571
 20
-3.697069810236698
 42
-0.1775077200810246
 10
6.697202341601666
 20
-3.873877008374407
 42
-0.1210907755229007
 97
        0
 92
        7
 72
     1
 73
     1
 93
       15
 10
7.838830780765817
 20
-3.892727417841783
 42
-0.1681505465179636
 10
8.02377642936608
 20
-3.703880319999441
 42
-0.2432435292261799
 10
8.281574371587225
 20
-3.72870599191637
 42
-0.2718544080325296
 10
8.335404748458813
 20
-3.906094591215861
 42
0.0
 10
8.146108343588196
 20
-4.812580118669558
 42
0.0
 10
8.546331920673253
 20
-4.812580118669586
 42
0.0
 10
8.739633487848607
 20
-3.843814600173075
 42
0.1869559109727573
 10
8.708571975710412
 20
-3.55414738959827
 42
0.2282764169136722
 10
8.434241485182553
 20
-3.416409065064058
 42
0.1548211452724478
 10
8.093504447587747
 20
-3.482973954396229
 42
0.0984224330473456
 10
7.891562384976282
 20
-3.640211074021777
 42
0.0
 10
7.935547234632508
 20
-3.429580398453509
 42
0.0
 10
7.539244758992822
 20
-3.429580398453509
 42
0.0
 10
7.250440506696122
 20
-4.812580118669558
 42
0.0
 10
7.646742982335752
 20
-4.812580118669572
 42
0.0
 97
        0
 92
        7
 72
     0
 73
     1
 93
        4
 10
9.625982522468632
 20
-3.429580398453524
 10
9.229680046829003
 20
-3.429580398453509
 10
8.940875794532303
 20
-4.812580118669558
 10
9.337178270172046
 20
-4.8125801186696
 97
        0
 92
        7
 72
     0
 73
     1
 93
        4
 10
9.745922131544659
 20
-2.855224430784318
 10
9.34961965590503
 20
-2.855224430784332
 10
9.27698869286246
 20
-3.203033026980861
 10
9.673291168502146
 20
-3.203033026980861
 97
        0
 92
        7
 72
     0
 73
     1
 93
        4
 10
12.03240295060681
 20
-3.429580398453509
 10
11.44364835907379
 20
-3.429580398453495
 10
10.87989922911413
 20
-3.888285852559178
 10
11.10949294143216
 20
-4.156570318460708
 97
        0
 92
        7
 72
     0
 73
     1
 93
        4
 10
11.05743489431273
 20
-4.407247884316163
 10
10.70348876138359
 20
-4.686056509542012
 10
11.02721331439767
 20
-5.064334590103314
 10
11.61975957304332
 20
-5.064334590103271
 97
        0
 75
     0
 76
     1
 47
0.0237982239116982
 98
       11
 10
1.427474595215414
 20
-3.466921616530399
 10
2.540276924309466
 20
-3.529962242013326
 10
3.403077140388461
 20
-3.872105201460513
 10
5.128677572546564
 20
-4.050614633904856
 10
6.869154243317836
 20
-3.872105201460513
 10
6.869154243317836
 20
-3.872105201460513
 10
7.657574707896685
 20
-4.18449635002436
 10
9.221850949254132
 20
-4.184360945182802
 10
9.578826617252673
 20
-3.161037064634811
 10
11.41130113635171
 20
-3.803588918816572
 10
11.19711616802232
 20
-4.874509392213795
450
        0
451
        0
460
0.0
461
0.0
452
        0
462
0.0
453
        0
470

1001
ACAD
1010
0.0
1020
0.0
1030
0.0
  0
ENDBLK
  5
1E3A
330
1E34
100
AcDbEntity
  8
0
 62
     1
100
AcDbBlockEnd
  0
BLOCK
  5
1E3E
330
1E3B
100
AcDbEntity
  8
0
 62
     1
100
AcDbBlockBegin
  2
A$C25042B23
 70
     0
 10
0.0
 20
0.0
 30
0.0
  3
A$C25042B23
  1

  0
INSERT
  5
1E3F
330
1E3B
100
AcDbEntity
  8
0
 62
     1
100
AcDbBlockReference
  2
A$C53560A2D
 10
0.0000000000001137
 20
0.0
 30
0.0
  0
ENDBLK
  5
1E40
330
1E3B
100
AcDbEntity
  8
0
 62
     1
100
AcDbBlockEnd
  0
BLOCK
  5
1E42
330
1E41
100
AcDbEntity
  8
0
100
AcDbBlockBegin
  2
_FILLED
 70
     0
 10
0.0
 20
0.0
 30
0.0
  3
_FILLED
  1

  0
SOLID
  5
1E43
330
1E41
100
AcDbEntity
  8
0
  6
ByBlock
 62
     0
100
AcDbTrace
 10
0.0
 20
0.0
 30
0.0
 11
-1.0
 21
0.1875
 31
0.0
 12
-1.0
 22
-0.1875
 32
0.0
 13
-1.0
 23
-0.1875
 33
0.0
  0
ENDBLK
  5
1E44
330
1E41
100
AcDbEntity
  8
0
  6
ByBlock
 62
     0
100
AcDbBlockEnd
  0
BLOCK
  5
1E46
330
1E45
100
AcDbEntity
  8
0
100
AcDbBlockBegin
  2
*D38
 70
     1
 10
0.0
 20
0.0
 30
0.0
  3
*D38
  1

  0
LINE
  5
1E47
330
1E45
100
AcDbEntity
  8
0
  6
Continuous
 62
     0
370
    -2
100
AcDbLine
 10
1802.555021500383
 20
-480.9336425058048
 30
0.0
 11
1802.555021500383
 21
-488.3557146914714
 31
0.0
  0
LINE
  5
1E48
330
1E45
100
AcDbEntity
  8
0
  6
Continuous
 62
     0
370
    -2
100
AcDbLine
 10
1847.055021181983
 20
-481.2336410539381
 30
0.0
 11
1847.055021181983
 21
-488.3557146914714
 31
0.0
  0
LINE
  5
1E49
330
1E45
100
AcDbEntity
  8
0
  6
Continuous
 62
     0
370
    -2
100
AcDbLine
 10
1806.555021500383
 20
-488.1757146914714
 30
0.0
 11
1843.055021181983
 21
-488.1757146914714
 31
0.0
  0
INSERT
  5
1E4A
330
1E45
100
AcDbEntity
  8
0
  6
Continuous
 62
     0
370
    -2
100
AcDbBlockReference
  2
_FILLED
 10
1802.555021500383
 20
-488.1757146914714
 30
0.0
 41
4.0
 42
4.0
 43
4.0
 50
180.0
  0
INSERT
  5
1E4B
330
1E45
100
AcDbEntity
  8
0
  6
Continuous
 62
     0
370
    -2
100
AcDbBlockReference
  2
_FILLED
 10
1847.055021181983
 20
-488.1757146914714
 30
0.0
 41
4.0
 42
4.0
 43
4.0
  0
MTEXT
  5
1E4C
330
1E45
100
AcDbEntity
  8
0
  6
Continuous
 62
     5
100
AcDbMText
 10
1824.805021341183
 20
-486.6857146914714
 30
0.0
 40
2.799999999999999
 41
0.0
 46
0.0
 71
     5
 72
     1
  1
\A1;29.67±0.3
 73
     1
 44
1.0
  0
POINT
  5
1E4D
330
1E45
100
AcDbEntity
  8
Defpoints
  6
Continuous
 62
     0
100
AcDbPoint
 10
1802.555021500383
 20
-480.8711425058048
 30
0.0
  0
POINT
  5
1E4E
330
1E45
100
AcDbEntity
  8
Defpoints
  6
Continuous
 62
     0
100
AcDbPoint
 10
1847.055021181983
 20
-481.1711410539381
 30
0.0
  0
POINT
  5
1E4F
330
1E45
100
AcDbEntity
  8
Defpoints
  6
Continuous
 62
     0
100
AcDbPoint
 10
1847.055021181983
 20
-488.1757146914714
 30
0.0
  0
ENDBLK
  5
1E50
330
1E45
100
AcDbEntity
  8
0
100
AcDbBlockEnd
  0
BLOCK
  5
1E54
330
1E51
100
AcDbEntity
  8
0
100
AcDbBlockBegin
  2
A$C274A2516
 70
     0
 10
0.0
 20
0.0
 30
0.0
  3
A$C274A2516
  1

  0
DIMENSION
  5
1E55
330
1E51
100
AcDbEntity
  8
0
  6
Continuous
 62
     2
100
AcDbDimension
  2
*D38
 10
49.41318594722497
 20
1.185548929283584
 30
0.0
 11
27.1631861064252
 21
1.185548929283584
 31
0.0
 12
-1797.641835234758
 22
489.361263620755
 32
0.0
 70
   128
 71
     0
 72
     0
 41
0.0
 42
29.66666645588333
 73
     0
 74
     0
 75
     0
  3
DIMSTYLE_8
100
AcDbAlignedDimension
 13
4.913186265624972
 23
8.490121114950227
 33
0.0
 14
49.41318594722497
 24
8.19012256681691
 34
0.0
100
AcDbRotatedDimension
  0
LINE
  5
1E56
330
1E51
100
AcDbEntity
  8
0
  6
Continuous
 62
     7
100
AcDbLine
 10
4.913186265624972
 20
30.62336891321689
 30
0.0
 11
4.913186265624972
 21
9.023539983350246
 31
0.0
  0
LINE
  5
1E57
330
1E51
100
AcDbEntity
  8
0
  6
Continuous
 62
     7
100
AcDbLine
 10
5.113185485291523
 20
30.82345444728361
 30
0.0
 11
5.113185485291523
 21
8.823454449283588
 31
0.0
  0
LINE
  5
1E58
330
1E51
100
AcDbEntity
  8
0
  6
Continuous
 62
     7
100
AcDbLine
 10
4.913187226958598
 20
30.62345408315025
 30
0.0
 11
5.11318663495831
 21
30.82345346661691
 31
0.0
  0
LINE
  5
1E59
330
1E51
100
AcDbEntity
  8
0
  6
Continuous
 62
     7
100
AcDbLine
 10
4.913187226958598
 20
9.023454813416947
 30
0.0
 11
5.11318663495831
 21
8.823455429950229
 31
0.0
  0
LWPOLYLINE
  5
1E5A
330
1E51
100
AcDbEntity
  8
0
  6
Continuous
 62
     7
100
AcDbPolyline
 90
        3
 70
     0
 43
0.0
 10
8.213186495558602
 20
10.47664903488356
 10
8.175811462891488
 20
10.67089466321692
 10
8.163188469091892
 20
10.85374136828358
  0
LINE
  5
1E5B
330
1E51
100
AcDbEntity
  8
0
  6
Continuous
 62
     7
100
AcDbLine
 10
7.713187482491775
 20
30.82345444728361
 30
0.0
 11
7.713187482491775
 21
8.823454449283588
 31
0.0
  0
LINE
  5
1E5C
330
1E51
100
AcDbEntity
  8
0
  6
Continuous
 62
     7
100
AcDbLine
 10
7.913186265624972
 20
30.62337005035028
 30
0.0
 11
7.913186265624972
 21
9.023538846216922
 31
0.0
  0
LINE
  5
1E5D
330
1E51
100
AcDbEntity
  8
0
  6
Continuous
 62
     7
100
AcDbLine
 10
8.213190692692023
 20
8.823454448283598
 30
0.0
 11
8.213188470958357
 21
10.47664542421694
 31
0.0
  0
LINE
  5
1E5E
330
1E51
100
AcDbEntity
  8
0
  6
Continuous
 62
     7
100
AcDbLine
 10
8.21318847575867
 20
29.17026347688358
 30
0.0
 11
8.213190692692023
 21
30.8234544482836
 31
0.0
  0
LINE
  5
1E5F
330
1E51
100
AcDbEntity
  8
0
  6
Continuous
 62
     7
100
AcDbLine
 10
8.213188774424907
 20
11.17667091475027
 30
0.0
 11
8.213186622558623
 21
28.47024295441696
 31
0.0
  0
LINE
  5
1E60
330
1E51
100
AcDbEntity
  8
0
  6
Continuous
 62
     7
100
AcDbLine
 10
9.163186265624972
 20
28.92428466195026
 30
0.0
 11
9.163186265624972
 21
28.58013880015028
 31
0.0
  0
LINE
  5
1E61
330
1E51
100
AcDbEntity
  8
0
  6
Continuous
 62
     7
100
AcDbLine
 10
9.163186265624972
 20
11.06677009641692
 30
0.0
 11
9.163186265624972
 21
10.72262423461694
 31
0.0
  0
LINE
  5
1E62
330
1E51
100
AcDbEntity
  8
0
  6
Continuous
 62
     7
100
AcDbLine
 10
10.11318626562524
 20
29.46918227648359
 30
0.0
 11
10.11318626562524
 21
28.6785390486836
 31
0.0
  0
LINE
  5
1E63
330
1E51
100
AcDbEntity
  8
0
  6
Continuous
 62
     7
100
AcDbLine
 10
10.11318626562524
 20
28.58013880015028
 30
0.0
 11
10.11318626562524
 21
28.03524118561694
 31
0.0
  0
LINE
  5
1E64
330
1E51
100
AcDbEntity
  8
0
  6
Continuous
 62
     7
100
AcDbLine
 10
10.11318626562524
 20
11.61166771095025
 30
0.0
 11
10.11318626562524
 21
11.06677009641692
 31
0.0
  0
LINE
  5
1E65
330
1E51
100
AcDbEntity
  8
0
  6
Continuous
 62
     7
100
AcDbLine
 10
10.11318626562524
 20
10.1777266200836
 30
0.0
 11
10.11318626562524
 21
10.96836984788359
 31
0.0
  0
LINE
  5
1E66
330
1E51
100
AcDbEntity
  8
0
  6
Continuous
 62
     7
100
AcDbLine
 10
10.71318626562515
 20
10.1777266200836
 30
0.0
 11
10.71318626562515
 21
10.96836984788359
 31
0.0
  0
LINE
  5
1E67
330
1E51
100
AcDbEntity
  8
0
  6
Continuous
 62
     7
100
AcDbLine
 10
10.71318626562515
 20
11.06677009641692
 30
0.0
 11
10.71318626562515
 21
11.61166771095025
 31
0.0
  0
LINE
  5
1E68
330
1E51
100
AcDbEntity
  8
0
  6
Continuous
 62
     7
100
AcDbLine
 10
10.71318626562515
 20
28.03524118561694
 30
0.0
 11
10.71318626562515
 21
28.58013880015028
 31
0.0
  0
LINE
  5
1E69
330
1E51
100
AcDbEntity
  8
0
  6
Continuous
 62
     7
100
AcDbLine
 10
10.71318626562515
 20
28.6785390486836
 30
0.0
 11
10.71318626562515
 21
29.46918227648359
 31
0.0
  0
LWPOLYLINE
  5
1E6A
330
1E51
100
AcDbEntity
  8
0
  6
Continuous
 62
     7
100
AcDbPolyline
 90
        3
 70
     0
 43
0.0
 10
8.163188469091892
 20
28.79316752828362
 10
8.17583730295837
 20
28.9762081701503
 10
8.213186495224817
 20
29.17025986061691
  0
LWPOLYLINE
  5
1E6B
330
1E51
100
AcDbEntity
  8
0
  6
Continuous
 62
     7
100
AcDbPolyline
 90
        3
 70
     0
 43
0.0
 10
8.163188469091892
 20
10.85374136828358
 10
8.175650471758217
 20
11.02190699701691
 10
8.213186521692023
 20
11.17666580955023
  0
LWPOLYLINE
  5
1E6C
330
1E51
100
AcDbEntity
  8
0
  6
Continuous
 62
     7
100
AcDbPolyline
 90
        4
 70
     0
 43
0.0
 10
8.21318847575867
 20
29.17026347688358
 10
8.377277491491895
 20
29.35729460461693
 10
8.610037768691654
 20
29.51662803501694
 10
8.764919697225195
 20
29.58531678115026
  0
LINE
  5
1E6D
330
1E51
100
AcDbEntity
  8
0
  6
Continuous
 62
     7
100
AcDbLine
 10
7.913186265624972
 20
30.52345381181692
 30
0.0
 11
8.213190692692023
 21
30.82345822101689
 31
0.0
  0
LINE
  5
1E6E
330
1E51
100
AcDbEntity
  8
0
  6
Continuous
 62
     7
100
AcDbLine
 10
7.913186265624972
 20
9.123458754616933
 30
0.0
 11
8.213190692692023
 21
8.823454448283598
 31
0.0
  0
LWPOLYLINE
  5
1E6F
330
1E51
100
AcDbEntity
  8
0
  6
Continuous
 62
     7
100
AcDbPolyline
 90
        3
 70
     0
 43
0.0
 10
8.213186301024961
 20
28.4702436676169
 10
8.175676291091804
 20
28.62482283895025
 10
8.163188469091892
 20
28.79316752828362
  0
LINE
  5
1E70
330
1E51
100
AcDbEntity
  8
0
  6
Continuous
 62
     7
100
AcDbLine
 10
11.66318626562497
 20
10.72262423461694
 30
0.0
 11
11.66318626562497
 21
11.06677009641692
 31
0.0
  0
LINE
  5
1E71
330
1E51
100
AcDbEntity
  8
0
  6
Continuous
 62
     7
100
AcDbLine
 10
11.66318626562497
 20
28.58013880015028
 30
0.0
 11
11.66318626562497
 21
28.92428466195026
 31
0.0
  0
LWPOLYLINE
  5
1E72
330
1E51
100
AcDbEntity
  8
0
  6
Continuous
 62
     7
100
AcDbPolyline
 90
        6
 70
     0
 43
0.0
 10
12.71318626562515
 20
10.8127819610836
 10
12.67443109789155
 20
10.5988917218836
 10
12.5559666740919
 20
10.39820804301695
 10
12.36716347122501
 20
10.22491104148361
 10
12.12976482955855
 20
10.08585990861689
 10
12.05166921982481
 20
10.05490441075022
  0
LWPOLYLINE
  5
1E73
330
1E51
100
AcDbEntity
  8
0
  6
Continuous
 62
     7
100
AcDbPolyline
 90
        4
 70
     0
 43
0.0
 10
12.71318626562515
 20
28.8341269354836
 10
12.66649113462517
 20
28.58702137181694
 10
12.53107403609192
 20
28.3411981496169
 10
12.31666526162507
 20
28.10848064181693
  0
LINE
  5
1E74
330
1E51
100
AcDbEntity
  8
0
  6
Continuous
 62
     7
100
AcDbLine
 10
12.31666526162507
 20
28.10848064181693
 30
0.0
 11
12.03189305542537
 21
27.89767473495027
 31
0.0
  0
LWPOLYLINE
  5
1E75
330
1E51
100
AcDbEntity
  8
0
  6
Continuous
 62
     7
100
AcDbPolyline
 90
       21
 70
     0
 43
0.0
 10
12.01340827709191
 20
27.88626525815022
 10
12.17785728969193
 20
27.99867631768359
 10
12.31844215395858
 20
28.1212776510169
 10
12.43326170075852
 20
28.25241128548356
 10
12.52076319275829
 20
28.39030386348355
 10
12.57976332229191
 20
28.53309062461693
 10
12.60946421382505
 20
28.67884062275022
 10
12.60946421382505
 20
28.82558283928359
 10
12.57976332229191
 20
28.97133283748355
 10
12.52076319275829
 20
29.1141195985503
 10
12.43326170075852
 20
29.25201217661692
 10
12.31844215395858
 20
29.3831458110169
 10
12.17785728969193
 20
29.50574714435021
 10
12.01340827709191
 20
29.61815820388358
 10
11.82731900695853
 20
29.71885882295027
 10
11.62210601735842
 20
29.80648719828361
 10
11.40054446209205
 20
29.87985830655026
 10
11.16563058095835
 20
29.93797992935026
 10
10.92054118129181
 20
29.98006607141696
 10
10.66859067669202
 20
30.00554758995026
 10
10.41318626562497
 20
30.01407989101693
  0
LINE
  5
1E76
330
1E51
100
AcDbEntity
  8
0
  6
Continuous
 62
     7
100
AcDbLine
 10
12.03189305542537
 20
27.89767473495027
 30
0.0
 11
11.97977812602539
 21
27.86622437968361
 31
0.0
  0
LINE
  5
1E77
330
1E51
100
AcDbEntity
  8
0
  6
Continuous
 62
     7
100
AcDbLine
 10
11.98388822782499
 20
27.86866520768359
 30
0.0
 11
12.01340827709191
 21
27.88626525815022
 31
0.0
  0
LWPOLYLINE
  5
1E78
330
1E51
100
AcDbEntity
  8
0
  6
Continuous
 62
     7
100
AcDbPolyline
 90
        4
 70
     0
 43
0.0
 10
8.769914140758373
 20
10.05817810475025
 10
8.601865428958717
 20
10.13479476535025
 10
8.377584375958576
 20
10.28934797315026
 10
8.213188470958357
 20
10.47664542421694
  0
LINE
  5
1E79
330
1E51
100
AcDbEntity
  8
0
  6
Continuous
 62
     7
100
AcDbLine
 10
11.98388822782499
 20
11.7782436888836
 30
0.0
 11
11.82731900695853
 21
11.86134425741693
 31
0.0
  0
LINE
  5
1E7A
330
1E51
100
AcDbEntity
  8
0
  6
Continuous
 62
     7
100
AcDbLine
 10
12.01340827709191
 20
11.76064363841692
 30
0.0
 11
11.98388822782499
 21
11.7782436888836
 31
0.0
  0
LINE
  5
1E7B
330
1E51
100
AcDbEntity
  8
0
  6
Continuous
 62
     7
100
AcDbLine
 10
11.98019621955836
 20
11.78028050148356
 30
0.0
 11
12.0739060570254
 21
11.72254413188358
 31
0.0
  0
LWPOLYLINE
  5
1E7C
330
1E51
100
AcDbEntity
  8
0
  6
Continuous
 62
     7
100
AcDbPolyline
 90
        5
 70
     0
 43
0.0
 10
12.0739060570254
 20
11.72254413188358
 10
12.34085617735855
 20
11.51650455168357
 10
12.53970442229183
 20
11.29378797568358
 10
12.6674515269583
 20
11.05729195595023
 10
12.71318626562515
 20
10.8127819610836
  0
LWPOLYLINE
  5
1E7D
330
1E51
100
AcDbEntity
  8
0
  6
Continuous
 62
     7
100
AcDbPolyline
 90
        3
 70
     0
 43
0.0
 10
8.213188774424907
 20
11.17667091475027
 10
8.378099694958564
 20
11.40762558268358
 10
8.611091128691896
 20
11.62239074941692
  0
LINE
  5
1E7E
330
1E51
100
AcDbEntity
  8
0
  6
Continuous
 62
     7
100
AcDbLine
 10
11.82731900695853
 20
27.78556463915021
 30
0.0
 11
11.98388822782499
 21
27.86866520768359
 31
0.0
  0
LWPOLYLINE
  5
1E7F
330
1E51
100
AcDbEntity
  8
0
  6
Continuous
 62
     7
100
AcDbPolyline
 90
        8
 70
     0
 43
0.0
 10
11.97977812602539
 20
27.86622437968361
 10
11.68366860235846
 20
27.71753302475025
 10
11.26093544162495
 20
27.57328605748359
 10
10.77782911862505
 20
27.48484447441689
 10
10.27437961162513
 20
27.46812908748359
 10
9.778741541358158
 20
27.52504237128363
 10
9.329011910491772
 20
27.64532754215025
 10
8.951168479492025
 20
27.80833628295028
  0
LINE
  5
1E80
330
1E51
100
AcDbEntity
  8
0
  6
Continuous
 62
     7
100
AcDbLine
 10
11.62210601735842
 20
27.69793626375025
 30
0.0
 11
11.82731900695853
 21
27.78556463915021
 31
0.0
  0
LWPOLYLINE
  5
1E81
330
1E51
100
AcDbEntity
  8
0
  6
Continuous
 62
     7
100
AcDbPolyline
 90
        6
 70
     0
 43
0.0
 10
11.62210601735842
 20
11.94897263281694
 10
11.40054446209205
 20
12.0223437410836
 10
11.16563058095835
 20
12.0804653638836
 10
10.92054118129181
 20
12.12255150595024
 10
10.66859067669202
 20
12.14803302441692
 10
10.41318626562497
 20
12.1565653254836
  0
LINE
  5
1E82
330
1E51
100
AcDbEntity
  8
0
  6
Continuous
 62
     7
100
AcDbLine
 10
11.82731900695853
 20
11.86134425741693
 30
0.0
 11
11.62210601735842
 21
11.94897263281694
 31
0.0
  0
LINE
  5
1E83
330
1E51
100
AcDbEntity
  8
0
  6
Continuous
 62
     7
100
AcDbLine
 10
7.913185039758445
 20
9.023454759816956
 30
0.0
 11
7.713185951958166
 21
8.8234557004169
 31
0.0
  0
LWPOLYLINE
  5
1E84
330
1E51
100
AcDbEntity
  8
0
  6
Continuous
 62
     7
100
AcDbPolyline
 90
       21
 70
     0
 43
0.0
 10
41.41318626562497
 20
9.632829005550263
 10
41.66859067669202
 20
9.641361306616943
 10
41.9205411812918
 20
9.66684282515024
 10
42.16563058095835
 20
9.708928967216934
 10
42.40054446209206
 20
9.767050590016935
 10
42.62210601735842
 20
9.840421698283591
 10
42.82731900695853
 20
9.92805007361693
 10
43.01340827709191
 20
10.02875069268361
 10
43.17785728969193
 20
10.14116175221693
 10
43.31844215395858
 20
10.26376308555024
 10
43.43326170075852
 20
10.39489671995028
 10
43.5207631927583
 20
10.53278929801695
 10
43.57976332229191
 20
10.67557605908359
 10
43.60946421382505
 20
10.82132605728361
 10
43.60946421382505
 20
10.96806827381692
 10
43.57976332229191
 20
11.11381827195026
 10
43.5207631927583
 20
11.25660503308359
 10
43.43326170075852
 20
11.39449761108358
 10
43.31844215395858
 20
11.5256312455503
 10
43.17785728969193
 20
11.64823257888361
 10
43.01340827709191
 20
11.76064363841692
  0
LWPOLYLINE
  5
1E85
330
1E51
100
AcDbEntity
  8
0
  6
Continuous
 62
     7
100
AcDbPolyline
 90
       21
 70
     0
 43
0.0
 10
10.41318626562497
 20
9.632829005550263
 10
10.66859067669202
 20
9.641361306616943
 10
10.92054118129181
 20
9.66684282515024
 10
11.16563058095835
 20
9.708928967216934
 10
11.40054446209205
 20
9.767050590016935
 10
11.62210601735842
 20
9.840421698283591
 10
11.82731900695853
 20
9.92805007361693
 10
12.01340827709191
 20
10.02875069268361
 10
12.17785728969193
 20
10.14116175221693
 10
12.31844215395858
 20
10.26376308555024
 10
12.43326170075852
 20
10.39489671995028
 10
12.52076319275829
 20
10.53278929801695
 10
12.57976332229191
 20
10.67557605908359
 10
12.60946421382505
 20
10.82132605728361
 10
12.60946421382505
 20
10.96806827381692
 10
12.57976332229191
 20
11.11381827195026
 10
12.52076319275829
 20
11.25660503308359
 10
12.43326170075852
 20
11.39449761108358
 10
12.31844215395858
 20
11.5256312455503
 10
12.17785728969193
 20
11.64823257888361
 10
12.01340827709191
 20
11.76064363841692
  0
LINE
  5
1E86
330
1E51
100
AcDbEntity
  8
02___PRT_ALL_AXES
  6
Continuous
 62
     7
100
AcDbLine
 10
49.21318626562515
 20
8.323454448283598
 30
0.0
 11
44.11318626562525
 21
8.323454448283598
 31
0.0
  0
LINE
  5
1E87
330
1E51
100
AcDbEntity
  8
02___PRT_ALL_AXES
  6
Continuous
 62
     7
100
AcDbLine
 10
43.61319140775822
 20
8.823454448283598
 30
0.0
 11
8.213190692692023
 21
8.823454448283598
 31
0.0
  0
LINE
  5
1E88
330
1E51
100
AcDbEntity
  8
02___PRT_ALL_AXES
  6
Continuous
 62
     7
100
AcDbLine
 10
5.113185653358414
 20
8.823454448283598
 30
0.0
 11
7.713187204091809
 21
8.823454448283598
 31
0.0
  0
LINE
  5
1E89
330
1E51
100
AcDbEntity
  8
0
  6
Continuous
 62
     7
100
AcDbLine
 10
10.11318626562524
 20
10.1777266200836
 30
0.0
 11
10.71318626562515
 21
10.1777266200836
 31
0.0
  0
LINE
  5
1E8A
330
1E51
100
AcDbEntity
  8
0
  6
Continuous
 62
     7
100
AcDbLine
 10
41.11318626562524
 20
10.1777266200836
 30
0.0
 11
41.71318626562515
 21
10.1777266200836
 31
0.0
  0
LINE
  5
1E8B
330
1E51
100
AcDbEntity
  8
0
  6
Continuous
 62
     7
100
AcDbLine
 10
10.11318626562524
 20
10.42347223335025
 30
0.0
 11
10.71318626562515
 21
10.42347223335025
 31
0.0
  0
LINE
  5
1E8C
330
1E51
100
AcDbEntity
  8
0
  6
Continuous
 62
     7
100
AcDbLine
 10
41.11318626562524
 20
10.42347223335025
 30
0.0
 11
41.71318626562515
 21
10.42347223335025
 31
0.0
  0
LINE
  5
1E8D
330
1E51
100
AcDbEntity
  8
0
  6
Continuous
 62
     7
100
AcDbLine
 10
9.163186265624972
 20
10.72262423461694
 30
0.0
 11
10.11318626562524
 21
10.72262423461694
 31
0.0
  0
LINE
  5
1E8E
330
1E51
100
AcDbEntity
  8
0
  6
Continuous
 62
     7
100
AcDbLine
 10
10.71318626562515
 20
10.72262423461694
 30
0.0
 11
11.66318626562497
 21
10.72262423461694
 31
0.0
  0
LINE
  5
1E8F
330
1E51
100
AcDbEntity
  8
0
  6
Continuous
 62
     7
100
AcDbLine
 10
40.16318626562497
 20
10.72262423461694
 30
0.0
 11
41.11318626562524
 21
10.72262423461694
 31
0.0
  0
LINE
  5
1E90
330
1E51
100
AcDbEntity
  8
0
  6
Continuous
 62
     7
100
AcDbLine
 10
41.71318626562515
 20
10.72262423461694
 30
0.0
 11
42.66318626562497
 21
10.72262423461694
 31
0.0
  0
LINE
  5
1E91
330
1E51
100
AcDbEntity
  8
0
  6
Continuous
 62
     7
100
AcDbLine
 10
9.163186265624972
 20
10.96836984788359
 30
0.0
 11
10.11318626562524
 21
10.96836984788359
 31
0.0
  0
LINE
  5
1E92
330
1E51
100
AcDbEntity
  8
0
  6
Continuous
 62
     7
100
AcDbLine
 10
10.71318626562515
 20
10.96836984788359
 30
0.0
 11
11.66318626562497
 21
10.96836984788359
 31
0.0
  0
LINE
  5
1E93
330
1E51
100
AcDbEntity
  8
0
  6
Continuous
 62
     7
100
AcDbLine
 10
40.16318626562497
 20
10.96836984788359
 30
0.0
 11
41.11318626562524
 21
10.96836984788359
 31
0.0
  0
LINE
  5
1E94
330
1E51
100
AcDbEntity
  8
0
  6
Continuous
 62
     7
100
AcDbLine
 10
41.71318626562515
 20
10.96836984788359
 30
0.0
 11
42.66318626562497
 21
10.96836984788359
 31
0.0
  0
LINE
  5
1E95
330
1E51
100
AcDbEntity
  8
0
  6
Continuous
 62
     7
100
AcDbLine
 10
42.66318626562497
 20
11.06677009641692
 30
0.0
 11
41.71318626562515
 21
11.06677009641692
 31
0.0
  0
LINE
  5
1E96
330
1E51
100
AcDbEntity
  8
0
  6
Continuous
 62
     7
100
AcDbLine
 10
41.11318626562524
 20
11.06677009641692
 30
0.0
 11
40.16318626562497
 21
11.06677009641692
 31
0.0
  0
LINE
  5
1E97
330
1E51
100
AcDbEntity
  8
0
  6
Continuous
 62
     7
100
AcDbLine
 10
11.66318626562497
 20
11.06677009641692
 30
0.0
 11
10.71318626562515
 21
11.06677009641692
 31
0.0
  0
LINE
  5
1E98
330
1E51
100
AcDbEntity
  8
0
  6
Continuous
 62
     7
100
AcDbLine
 10
10.11318626562524
 20
11.06677009641692
 30
0.0
 11
9.163186265624972
 21
11.06677009641692
 31
0.0
  0
LINE
  5
1E99
330
1E51
100
AcDbEntity
  8
0
  6
Continuous
 62
     7
100
AcDbLine
 10
41.71318626562515
 20
11.61166771095025
 30
0.0
 11
41.11318626562524
 21
11.61166771095025
 31
0.0
  0
LINE
  5
1E9A
330
1E51
100
AcDbEntity
  8
0
  6
Continuous
 62
     7
100
AcDbLine
 10
10.71318626562515
 20
11.61166771095025
 30
0.0
 11
10.11318626562524
 21
11.61166771095025
 31
0.0
  0
LWPOLYLINE
  5
1E9B
330
1E51
100
AcDbEntity
  8
0
  6
Continuous
 62
     7
100
AcDbPolyline
 90
       21
 70
     0
 43
0.0
 10
10.41318626562497
 20
9.632829005550263
 10
10.15778185455838
 20
9.641361306616943
 10
9.905831350024982
 20
9.66684282515024
 10
9.660741950292049
 20
9.708928967216934
 10
9.42582806922519
 20
9.767050590016935
 10
9.20426651389198
 20
9.840421698283591
 10
8.999053524291866
 20
9.92805007361693
 10
8.812964254158487
 20
10.02875069268361
 10
8.64851524155847
 20
10.14116175221693
 10
8.507930377291813
 20
10.26376308555024
 10
8.393110830491878
 20
10.39489671995028
 10
8.305609338558497
 20
10.53278929801695
 10
8.246609209024882
 20
10.67557605908359
 10
8.21690831742535
 20
10.82132605728361
 10
8.21690831742535
 20
10.96806827381692
 10
8.246609209024882
 20
11.11381827195026
 10
8.305609338558497
 20
11.25660503308359
 10
8.393110830491878
 20
11.39449761108358
 10
8.507930377291813
 20
11.5256312455503
 10
8.64851524155847
 20
11.64823257888361
 10
8.812964254158487
 20
11.76064363841692
  0
LWPOLYLINE
  5
1E9C
330
1E51
100
AcDbEntity
  8
0
  6
Continuous
 62
     7
100
AcDbPolyline
 90
       10
 70
     0
 43
0.0
 10
41.41318626562497
 20
9.632829005550263
 10
41.15778185455837
 20
9.641361306616943
 10
40.90583135002498
 20
9.66684282515024
 10
40.66074195029204
 20
9.708928967216934
 10
40.42582806922519
 20
9.767050590016935
 10
40.20426651389198
 20
9.840421698283591
 10
39.99905352429187
 20
9.92805007361693
 10
39.81296425415849
 20
10.02875069268361
 10
39.64851524155847
 20
10.14116175221693
 10
39.50793037729182
 20
10.26376308555024
  0
LINE
  5
1E9D
330
1E51
100
AcDbEntity
  8
0
  6
Continuous
 62
     7
100
AcDbLine
 10
7.913185039758445
 20
30.62345413675024
 30
0.0
 11
7.713185951958166
 21
30.82345319615024
 31
0.0
  0
LINE
  5
1E9E
330
1E51
100
AcDbEntity
  8
0
  6
Continuous
 62
     7
100
AcDbLine
 10
8.611091128691896
 20
11.62239074941692
 30
0.0
 11
8.846855555958427
 21
11.78085906961695
 31
0.0
  0
LINE
  5
1E9F
330
1E51
100
AcDbEntity
  8
0
  6
Continuous
 62
     7
100
AcDbLine
 10
8.812964254158487
 20
11.76064363841692
 30
0.0
 11
8.842484303424953
 21
11.7782436888836
 31
0.0
  0
LWPOLYLINE
  5
1EA0
330
1E51
100
AcDbEntity
  8
0
  6
Continuous
 62
     7
100
AcDbPolyline
 90
       10
 70
     0
 43
0.0
 10
8.846855555958427
 20
11.78085906961695
 10
8.909865266558426
 20
11.81646682221691
 10
9.268224909958462
 20
11.9796173426169
 10
9.669420999091926
 20
12.09903001928359
 10
10.09046133275842
 20
12.16631348475022
 10
10.51934873755863
 20
12.17995032475028
 10
10.94555498662521
 20
12.13972932795025
 10
11.35820502309161
 20
12.04646390721694
 10
11.74243219462505
 20
11.90343902028354
 10
11.98019621955836
 20
11.78028050148356
  0
LINE
  5
1EA1
330
1E51
100
AcDbEntity
  8
0
  6
Continuous
 62
     7
100
AcDbLine
 10
42.40054446209206
 20
27.6245651554836
 30
0.0
 11
42.62210601735842
 21
27.69793626375025
 31
0.0
  0
LINE
  5
1EA2
330
1E51
100
AcDbEntity
  8
02___PRT_ALL_AXES
  6
Continuous
 62
     7
100
AcDbLine
 10
59.21318626562515
 20
12.8234544482836
 30
0.0
 11
49.41318626562497
 21
12.8234544482836
 31
0.0
  0
LINE
  5
1EA3
330
1E51
100
AcDbEntity
  8
0
  6
Continuous
 62
     7
100
AcDbLine
 10
75.81325582075852
 20
13.55505757315023
 30
0.0
 11
76.2641004612251
 21
13.55505757315023
 31
0.0
  0
LINE
  5
1EA4
330
1E51
100
AcDbEntity
  8
02___PRT_ALL_AXES
  6
Continuous
 62
     7
100
AcDbLine
 10
62.71318626562515
 20
15.3234544482836
 30
0.0
 11
59.61318626562524
 21
15.3234544482836
 31
0.0
  0
LINE
  5
1EA5
330
1E51
100
AcDbEntity
  8
02___PRT_ALL_AXES
  6
Continuous
 62
     7
100
AcDbLine
 10
64.84464883915871
 20
15.3234544482836
 30
0.0
 11
72.54464883915852
 21
15.3234544482836
 31
0.0
  0
LWPOLYLINE
  5
1EA6
330
1E51
100
AcDbEntity
  8
02___PRT_ALL_AXES
  6
Continuous
 62
     7
100
AcDbPolyline
 90
        6
 70
     0
 43
0.0
 10
39.77301669529197
 20
10.05605731708357
 10
39.64442661809199
 20
10.11192043455025
 10
39.4255164399583
 20
10.25008211135025
 10
39.2544540539584
 20
10.41807823615028
 10
39.14794905195822
 20
10.60985040681692
 10
39.11318626562525
 20
10.8127819610836
  0
LINE
  5
1EA7
330
1E51
100
AcDbEntity
  8
0
  6
Continuous
 62
     7
100
AcDbLine
 10
8.999053524291866
 20
27.78556463915021
 30
0.0
 11
8.842484303424953
 21
27.86866520768359
 31
0.0
  0
LINE
  5
1EA8
330
1E51
100
AcDbEntity
  8
0
  6
Continuous
 62
     7
100
AcDbLine
 10
8.951168479492025
 20
27.80833628295028
 30
0.0
 11
8.846290845491694
 21
27.86628302555028
 31
0.0
  0
LINE
  5
1EA9
330
1E51
100
AcDbEntity
  8
0
  6
Continuous
 62
     7
100
AcDbLine
 10
8.842484303424953
 20
27.86866520768359
 30
0.0
 11
8.812964254158487
 21
27.88626525815022
 31
0.0
  0
LWPOLYLINE
  5
1EAA
330
1E51
100
AcDbEntity
  8
0
  6
Continuous
 62
     7
100
AcDbPolyline
 90
        4
 70
     0
 43
0.0
 10
8.846290845491694
 20
27.86628302555028
 10
8.637064237225331
 20
28.0047897214169
 10
8.387900010158318
 20
28.22842845488361
 10
8.213186622558623
 20
28.47024295441696
  0
LWPOLYLINE
  5
1EAB
330
1E51
100
AcDbEntity
  8
0
  6
Continuous
 62
     7
100
AcDbPolyline
 90
       21
 70
     0
 43
0.0
 10
8.812964254158487
 20
27.88626525815022
 10
8.64851524155847
 20
27.99867631768359
 10
8.507930377291813
 20
28.1212776510169
 10
8.393110830491878
 20
28.25241128548356
 10
8.305609338558497
 20
28.39030386348355
 10
8.246609209024882
 20
28.53309062461693
 10
8.21690831742535
 20
28.67884062275022
 10
8.21690831742535
 20
28.82558283928359
 10
8.246609209024882
 20
28.97133283748355
 10
8.305609338558497
 20
29.1141195985503
 10
8.393110830491878
 20
29.25201217661692
 10
8.507930377291813
 20
29.3831458110169
 10
8.64851524155847
 20
29.50574714435021
 10
8.812964254158487
 20
29.61815820388358
 10
8.999053524291866
 20
29.71885882295027
 10
9.20426651389198
 20
29.80648719828361
 10
9.42582806922519
 20
29.87985830655026
 10
9.660741950292049
 20
29.93797992935026
 10
9.905831350024982
 20
29.98006607141696
 10
10.15778185455838
 20
30.00554758995026
 10
10.41318626562497
 20
30.01407989101693
  0
LWPOLYLINE
  5
1EAC
330
1E51
100
AcDbEntity
  8
0
  6
Continuous
 62
     7
100
AcDbPolyline
 90
       11
 70
     0
 43
0.0
 10
39.39311083049188
 20
29.25201217661692
 10
39.50793037729182
 20
29.3831458110169
 10
39.64851524155847
 20
29.50574714435021
 10
39.81296425415849
 20
29.61815820388358
 10
39.99905352429187
 20
29.71885882295027
 10
40.20426651389198
 20
29.80648719828361
 10
40.42582806922519
 20
29.87985830655026
 10
40.66074195029204
 20
29.93797992935026
 10
40.90583135002498
 20
29.98006607141696
 10
41.15778185455837
 20
30.00554758995026
 10
41.41318626562497
 20
30.01407989101693
  0
LINE
  5
1EAD
330
1E51
100
AcDbEntity
  8
0
  6
Continuous
 62
     7
100
AcDbLine
 10
43.91318702595845
 20
31.12345368788357
 30
0.0
 11
44.11318703935831
 21
31.3234536744169
 31
0.0
  0
LWPOLYLINE
  5
1EAE
330
1E51
100
AcDbEntity
  8
0
  6
Continuous
 62
     7
100
AcDbPolyline
 90
       21
 70
     0
 43
0.0
 10
43.01340827709191
 20
27.88626525815022
 10
43.17785728969193
 20
27.99867631768359
 10
43.31844215395858
 20
28.1212776510169
 10
43.43326170075852
 20
28.25241128548356
 10
43.5207631927583
 20
28.39030386348355
 10
43.57976332229191
 20
28.53309062461693
 10
43.60946421382505
 20
28.67884062275022
 10
43.60946421382505
 20
28.82558283928359
 10
43.57976332229191
 20
28.97133283748355
 10
43.5207631927583
 20
29.1141195985503
 10
43.43326170075852
 20
29.25201217661692
 10
43.31844215395858
 20
29.3831458110169
 10
43.17785728969193
 20
29.50574714435021
 10
43.01340827709191
 20
29.61815820388358
 10
42.82731900695853
 20
29.71885882295027
 10
42.62210601735842
 20
29.80648719828361
 10
42.40054446209206
 20
29.87985830655026
 10
42.16563058095835
 20
29.93797992935026
 10
41.9205411812918
 20
29.98006607141696
 10
41.66859067669202
 20
30.00554758995026
 10
41.41318626562497
 20
30.01407989101693
  0
LINE
  5
1EAF
330
1E51
100
AcDbEntity
  8
02___PRT_ALL_AXES
  6
Continuous
 62
     7
100
AcDbLine
 10
43.15921761275831
 20
27.98272772895024
 30
0.0
 11
42.98023344755847
 21
27.86655554935027
 31
0.0
  0
LINE
  5
1EB0
330
1E51
100
AcDbEntity
  8
0
  6
Continuous
 62
     7
100
AcDbLine
 10
42.98388822782499
 20
27.86866520768359
 30
0.0
 11
43.01340827709191
 21
27.88626525815022
 31
0.0
  0
LWPOLYLINE
  5
1EB1
330
1E51
100
AcDbEntity
  8
02___PRT_ALL_AXES
  6
Continuous
 62
     7
100
AcDbPolyline
 90
        9
 70
     0
 43
0.0
 10
42.98023344755847
 20
27.86655554935027
 10
42.80901453729166
 20
27.77486596028359
 10
42.39429650742522
 20
27.61138776188358
 10
41.928421784492
 20
27.50450175335027
 10
41.43819929842493
 20
27.46540149768362
 10
40.95061893615866
 20
27.49683860835029
 10
40.48882221582516
 20
27.59439606895029
 10
40.08916822289165
 20
27.74109663588359
 10
39.8460619485586
 20
27.86641231781692
  0
LINE
  5
1EB2
330
1E51
100
AcDbEntity
  8
0
  6
Continuous
 62
     7
100
AcDbLine
 10
8.842484303424953
 20
11.7782436888836
 30
0.0
 11
8.999053524291866
 21
11.86134425741693
 31
0.0
  0
LINE
  5
1EB3
330
1E51
100
AcDbEntity
  8
0
  6
Continuous
 62
     7
100
AcDbLine
 10
42.82731900695853
 20
27.78556463915021
 30
0.0
 11
42.98388822782499
 21
27.86866520768359
 31
0.0
  0
LINE
  5
1EB4
330
1E51
100
AcDbEntity
  8
0
  6
Continuous
 62
     7
100
AcDbLine
 10
42.62210601735842
 20
27.69793626375025
 30
0.0
 11
42.82731900695853
 21
27.78556463915021
 31
0.0
  0
LWPOLYLINE
  5
1EB5
330
1E51
100
AcDbEntity
  8
0
  6
Continuous
 62
     7
100
AcDbPolyline
 90
        7
 70
     0
 43
0.0
 10
8.999053524291866
 20
11.86134425741693
 10
9.20426651389198
 20
11.94897263281694
 10
9.42582806922519
 20
12.0223437410836
 10
9.660741950292049
 20
12.0804653638836
 10
9.905831350024982
 20
12.12255150595024
 10
10.15778185455838
 20
12.14803302441692
 10
10.41318626562497
 20
12.1565653254836
  0
LINE
  5
1EB6
330
1E51
100
AcDbEntity
  8
02___PRT_ALL_AXES
  6
Continuous
 62
     7
100
AcDbLine
 10
63.96318626562515
 20
17.3234544482836
 30
0.0
 11
62.91318626562542
 21
17.3234544482836
 31
0.0
  0
LINE
  5
1EB7
330
1E51
100
AcDbEntity
  8
0
  6
Continuous
 62
     7
100
AcDbLine
 10
63.96318626562515
 20
17.34845444828357
 30
0.0
 11
64.54464883915853
 21
17.34845444828357
 31
0.0
  0
LINE
  5
1EB8
330
1E51
100
AcDbEntity
  8
DEFAULT_1
  6
CENTER
 62
     7
100
AcDbLine
 10
-0.0000000000004547
 20
19.8234544482836
 30
0.0
 11
76.70446733482504
 21
19.8234544482836
 31
0.0
  0
LINE
  5
1EB9
330
1E51
100
AcDbEntity
  8
DEFAULT_1
  6
CENTER
 62
     7
100
AcDbLine
 10
78.11318626562524
 20
19.8234544482836
 30
0.0
 11
78.32265226969184
 21
19.8234544482836
 31
0.0
  0
LWPOLYLINE
  5
1EBA
330
1E51
100
AcDbEntity
  8
0
  6
Continuous
 62
     7
100
AcDbPolyline
 90
        3
 70
     0
 43
0.0
 10
9.42582806922519
 20
27.6245651554836
 10
9.20426651389198
 20
27.69793626375025
 10
8.999053524291866
 20
27.78556463915021
  0
LWPOLYLINE
  5
1EBB
330
1E51
100
AcDbEntity
  8
0
  6
Continuous
 62
     7
100
AcDbPolyline
 90
        7
 70
     0
 43
0.0
 10
42.82731900695853
 20
11.86134425741693
 10
42.62210601735842
 20
11.94897263281694
 10
42.40054446209206
 20
12.0223437410836
 10
42.16563058095835
 20
12.0804653638836
 10
41.9205411812918
 20
12.12255150595024
 10
41.66859067669202
 20
12.14803302441692
 10
41.41318626562497
 20
12.1565653254836
  0
LINE
  5
1EBC
330
1E51
100
AcDbEntity
  8
0
  6
Continuous
 62
     7
100
AcDbLine
 10
42.98388822782499
 20
11.7782436888836
 30
0.0
 11
42.82731900695853
 21
11.86134425741693
 31
0.0
  0
LINE
  5
1EBD
330
1E51
100
AcDbEntity
  8
0
  6
Continuous
 62
     7
100
AcDbLine
 10
43.01340827709191
 20
11.76064363841692
 30
0.0
 11
42.98388822782499
 21
11.7782436888836
 31
0.0
  0
LWPOLYLINE
  5
1EBE
330
1E51
100
AcDbEntity
  8
02___PRT_ALL_AXES
  6
Continuous
 62
     7
100
AcDbPolyline
 90
        4
 70
     0
 43
0.0
 10
42.97853385902499
 20
11.78138856748359
 10
43.24902805335841
 20
11.59573806175029
 10
43.46120142175869
 20
11.39296609455027
 10
43.61319140775822
 20
11.17665563381689
  0
LINE
  5
1EBF
330
1E51
100
AcDbEntity
  8
0
  6
Continuous
 62
     7
100
AcDbLine
 10
43.91318702589205
 20
8.523455208683571
 30
0.0
 11
44.11318703935831
 21
8.323455222150244
 31
0.0
  0
LWPOLYLINE
  5
1EC0
330
1E51
100
AcDbEntity
  8
0
  6
Continuous
 62
     7
100
AcDbPolyline
 90
       12
 70
     0
 43
0.0
 10
39.50793037729182
 20
10.26376308555024
 10
39.39311083049188
 20
10.39489671995028
 10
39.3056093385585
 20
10.53278929801695
 10
39.24660920902488
 20
10.67557605908359
 10
39.21690831742535
 20
10.82132605728361
 10
39.21690831742535
 20
10.96806827381692
 10
39.24660920902488
 20
11.11381827195026
 10
39.3056093385585
 20
11.25660503308359
 10
39.39311083049188
 20
11.39449761108358
 10
39.50793037729182
 20
11.5256312455503
 10
39.64851524155847
 20
11.64823257888361
 10
39.81296425415849
 20
11.76064363841692
  0
LWPOLYLINE
  5
1EC1
330
1E51
100
AcDbEntity
  8
02___PRT_ALL_AXES
  6
Continuous
 62
     7
100
AcDbPolyline
 90
        6
 70
     0
 43
0.0
 10
39.11318626562525
 20
28.8341269354836
 10
39.16044855149176
 20
29.06949238961693
 10
39.29227063082499
 20
29.27403493368359
 10
39.49641674062514
 20
29.44784101315025
 10
39.76867322069166
 20
29.59390772641695
 10
39.78672640802506
 20
29.60022301515028
  0
LINE
  5
1EC2
330
1E51
100
AcDbEntity
  8
02___PRT_ALL_AXES
  6
Continuous
 62
     7
100
AcDbLine
 10
43.61319140775822
 20
28.47025326275025
 30
0.0
 11
43.43241391342508
 21
28.22182367648361
 31
0.0
  0
LINE
  5
1EC3
330
1E51
100
AcDbEntity
  8
02___PRT_ALL_AXES
  6
Continuous
 62
     7
100
AcDbLine
 10
43.43241391342508
 20
28.22182367648361
 30
0.0
 11
43.15921761275831
 21
27.98272772895024
 31
0.0
  0
LINE
  5
1EC4
330
1E51
100
AcDbEntity
  8
0
  6
Continuous
 62
     7
100
AcDbLine
 10
63.96318626562515
 20
22.29845444828356
 30
0.0
 11
64.54464883915853
 21
22.29845444828356
 31
0.0
  0
LINE
  5
1EC5
330
1E51
100
AcDbEntity
  8
02___PRT_ALL_AXES
  6
Continuous
 62
     7
100
AcDbLine
 10
63.96318626562515
 20
22.3234544482836
 30
0.0
 11
62.91318626562542
 21
22.3234544482836
 31
0.0
  0
LINE
  5
1EC6
330
1E51
100
AcDbEntity
  8
02___PRT_ALL_AXES
  6
Continuous
 62
     7
100
AcDbLine
 10
62.71318626562515
 20
24.3234544482836
 30
0.0
 11
59.61318626562524
 21
24.3234544482836
 31
0.0
  0
LINE
  5
1EC7
330
1E51
100
AcDbEntity
  8
02___PRT_ALL_AXES
  6
Continuous
 62
     7
100
AcDbLine
 10
64.84464883915871
 20
24.3234544482836
 30
0.0
 11
72.54464883915852
 21
24.3234544482836
 31
0.0
  0
LWPOLYLINE
  5
1EC8
330
1E51
100
AcDbEntity
  8
0
  6
Continuous
 62
     7
100
AcDbPolyline
 90
        6
 70
     0
 43
0.0
 10
12.04259319489165
 20
29.59820850961688
 10
12.07146388182491
 20
29.58788928708356
 10
12.3382100314252
 20
29.44227035141694
 10
12.53790027635841
 20
29.26977614608359
 10
12.66688022749167
 20
29.06718919615025
 10
12.71318626562515
 20
28.8341269354836
  0
LINE
  5
1EC9
330
1E51
100
AcDbEntity
  8
0
  6
Continuous
 62
     7
100
AcDbLine
 10
40.16318626562497
 20
28.92428466195026
 30
0.0
 11
40.16318626562497
 21
28.58013880015028
 31
0.0
  0
LINE
  5
1ECA
330
1E51
100
AcDbEntity
  8
0
  6
Continuous
 62
     7
100
AcDbLine
 10
40.16318626562497
 20
11.06677009641692
 30
0.0
 11
40.16318626562497
 21
10.72262423461694
 31
0.0
  0
LINE
  5
1ECB
330
1E51
100
AcDbEntity
  8
0
  6
Continuous
 62
     7
100
AcDbLine
 10
41.11318626562524
 20
29.46918227648359
 30
0.0
 11
41.11318626562524
 21
28.6785390486836
 31
0.0
  0
LINE
  5
1ECC
330
1E51
100
AcDbEntity
  8
0
  6
Continuous
 62
     7
100
AcDbLine
 10
41.11318626562524
 20
28.58013880015028
 30
0.0
 11
41.11318626562524
 21
28.03524118561694
 31
0.0
  0
LINE
  5
1ECD
330
1E51
100
AcDbEntity
  8
0
  6
Continuous
 62
     7
100
AcDbLine
 10
41.11318626562524
 20
11.61166771095025
 30
0.0
 11
41.11318626562524
 21
11.06677009641692
 31
0.0
  0
LINE
  5
1ECE
330
1E51
100
AcDbEntity
  8
0
  6
Continuous
 62
     7
100
AcDbLine
 10
41.11318626562524
 20
10.1777266200836
 30
0.0
 11
41.11318626562524
 21
10.96836984788359
 31
0.0
  0
LINE
  5
1ECF
330
1E51
100
AcDbEntity
  8
0
  6
Continuous
 62
     7
100
AcDbLine
 10
41.71318626562515
 20
10.1777266200836
 30
0.0
 11
41.71318626562515
 21
10.96836984788359
 31
0.0
  0
LINE
  5
1ED0
330
1E51
100
AcDbEntity
  8
0
  6
Continuous
 62
     7
100
AcDbLine
 10
41.71318626562515
 20
11.06677009641692
 30
0.0
 11
41.71318626562515
 21
11.61166771095025
 31
0.0
  0
LINE
  5
1ED1
330
1E51
100
AcDbEntity
  8
0
  6
Continuous
 62
     7
100
AcDbLine
 10
41.71318626562515
 20
28.03524118561694
 30
0.0
 11
41.71318626562515
 21
28.58013880015028
 31
0.0
  0
LINE
  5
1ED2
330
1E51
100
AcDbEntity
  8
0
  6
Continuous
 62
     7
100
AcDbLine
 10
41.71318626562515
 20
28.6785390486836
 30
0.0
 11
41.71318626562515
 21
29.46918227648359
 31
0.0
  0
LWPOLYLINE
  5
1ED3
330
1E51
100
AcDbEntity
  8
02___PRT_ALL_AXES
  6
Continuous
 62
     7
100
AcDbPolyline
 90
        4
 70
     0
 43
0.0
 10
39.11318626562525
 20
10.8127819610836
 10
39.16499459789202
 20
11.07328668095027
 10
39.30931667415871
 20
11.32446876541689
 10
39.53384360609152
 20
11.55951985668361
  0
LWPOLYLINE
  5
1ED4
330
1E51
100
AcDbEntity
  8
0
  6
Continuous
 62
     7
100
AcDbPolyline
 90
        5
 70
     0
 43
0.0
 10
41.41318626562497
 20
27.49034357108354
 10
41.66859067669202
 20
27.49887587215023
 10
41.9205411812918
 20
27.5243573906169
 10
42.16563058095835
 20
27.56644353268359
 10
42.40054446209206
 20
27.6245651554836
  0
LWPOLYLINE
  5
1ED5
330
1E51
100
AcDbEntity
  8
0
  6
Continuous
 62
     7
100
AcDbPolyline
 90
        6
 70
     0
 43
0.0
 10
10.41318626562497
 20
27.49034357108354
 10
10.66859067669202
 20
27.49887587215023
 10
10.92054118129181
 20
27.5243573906169
 10
11.16563058095835
 20
27.56644353268359
 10
11.40054446209205
 20
27.6245651554836
 10
11.62210601735842
 20
27.69793626375025
  0
LINE
  5
1ED6
330
1E51
100
AcDbEntity
  8
0
  6
Continuous
 62
     7
100
AcDbLine
 10
75.81325582075852
 20
26.09185132341691
 30
0.0
 11
76.2641004612251
 21
26.09185132341691
 31
0.0
  0
LINE
  5
1ED7
330
1E51
100
AcDbEntity
  8
02___PRT_ALL_AXES
  6
Continuous
 62
     7
100
AcDbLine
 10
59.21318626562515
 20
26.8234544482836
 30
0.0
 11
49.41318626562497
 21
26.8234544482836
 31
0.0
  0
LINE
  5
1ED8
330
1E51
100
AcDbEntity
  8
0
  6
Continuous
 62
     7
100
AcDbLine
 10
10.11318626562524
 20
28.03524118561694
 30
0.0
 11
10.71318626562515
 21
28.03524118561694
 31
0.0
  0
LINE
  5
1ED9
330
1E51
100
AcDbEntity
  8
0
  6
Continuous
 62
     7
100
AcDbLine
 10
41.11318626562524
 20
28.03524118561694
 30
0.0
 11
41.71318626562515
 21
28.03524118561694
 31
0.0
  0
LINE
  5
1EDA
330
1E51
100
AcDbEntity
  8
0
  6
Continuous
 62
     7
100
AcDbLine
 10
9.163186265624972
 20
28.58013880015028
 30
0.0
 11
10.11318626562524
 21
28.58013880015028
 31
0.0
  0
LINE
  5
1EDB
330
1E51
100
AcDbEntity
  8
0
  6
Continuous
 62
     7
100
AcDbLine
 10
10.71318626562515
 20
28.58013880015028
 30
0.0
 11
11.66318626562497
 21
28.58013880015028
 31
0.0
  0
LINE
  5
1EDC
330
1E51
100
AcDbEntity
  8
0
  6
Continuous
 62
     7
100
AcDbLine
 10
40.16318626562497
 20
28.58013880015028
 30
0.0
 11
41.11318626562524
 21
28.58013880015028
 31
0.0
  0
LINE
  5
1EDD
330
1E51
100
AcDbEntity
  8
0
  6
Continuous
 62
     7
100
AcDbLine
 10
41.71318626562515
 20
28.58013880015028
 30
0.0
 11
42.66318626562497
 21
28.58013880015028
 31
0.0
  0
LINE
  5
1EDE
330
1E51
100
AcDbEntity
  8
0
  6
Continuous
 62
     7
100
AcDbLine
 10
42.66318626562497
 20
28.6785390486836
 30
0.0
 11
41.71318626562515
 21
28.6785390486836
 31
0.0
  0
LINE
  5
1EDF
330
1E51
100
AcDbEntity
  8
0
  6
Continuous
 62
     7
100
AcDbLine
 10
41.11318626562524
 20
28.6785390486836
 30
0.0
 11
40.16318626562497
 21
28.6785390486836
 31
0.0
  0
LINE
  5
1EE0
330
1E51
100
AcDbEntity
  8
0
  6
Continuous
 62
     7
100
AcDbLine
 10
11.66318626562497
 20
28.6785390486836
 30
0.0
 11
10.71318626562515
 21
28.6785390486836
 31
0.0
  0
LINE
  5
1EE1
330
1E51
100
AcDbEntity
  8
0
  6
Continuous
 62
     7
100
AcDbLine
 10
10.11318626562524
 20
28.6785390486836
 30
0.0
 11
9.163186265624972
 21
28.6785390486836
 31
0.0
  0
LINE
  5
1EE2
330
1E51
100
AcDbEntity
  8
0
  6
Continuous
 62
     7
100
AcDbLine
 10
42.66318626562497
 20
28.92428466195026
 30
0.0
 11
41.71318626562515
 21
28.92428466195026
 31
0.0
  0
LINE
  5
1EE3
330
1E51
100
AcDbEntity
  8
0
  6
Continuous
 62
     7
100
AcDbLine
 10
41.11318626562524
 20
28.92428466195026
 30
0.0
 11
40.16318626562497
 21
28.92428466195026
 31
0.0
  0
LINE
  5
1EE4
330
1E51
100
AcDbEntity
  8
0
  6
Continuous
 62
     7
100
AcDbLine
 10
11.66318626562497
 20
28.92428466195026
 30
0.0
 11
10.71318626562515
 21
28.92428466195026
 31
0.0
  0
LINE
  5
1EE5
330
1E51
100
AcDbEntity
  8
0
  6
Continuous
 62
     7
100
AcDbLine
 10
10.11318626562524
 20
28.92428466195026
 30
0.0
 11
9.163186265624972
 21
28.92428466195026
 31
0.0
  0
LINE
  5
1EE6
330
1E51
100
AcDbEntity
  8
0
  6
Continuous
 62
     7
100
AcDbLine
 10
41.71318626562515
 20
29.22343666321694
 30
0.0
 11
41.11318626562524
 21
29.22343666321694
 31
0.0
  0
LINE
  5
1EE7
330
1E51
100
AcDbEntity
  8
0
  6
Continuous
 62
     7
100
AcDbLine
 10
10.71318626562515
 20
29.22343666321694
 30
0.0
 11
10.11318626562524
 21
29.22343666321694
 31
0.0
  0
LINE
  5
1EE8
330
1E51
100
AcDbEntity
  8
0
  6
Continuous
 62
     7
100
AcDbLine
 10
41.71318626562515
 20
29.46918227648359
 30
0.0
 11
41.11318626562524
 21
29.46918227648359
 31
0.0
  0
LINE
  5
1EE9
330
1E51
100
AcDbEntity
  8
0
  6
Continuous
 62
     7
100
AcDbLine
 10
10.71318626562515
 20
29.46918227648359
 30
0.0
 11
10.11318626562524
 21
29.46918227648359
 31
0.0
  0
LWPOLYLINE
  5
1EEA
330
1E51
100
AcDbEntity
  8
0
  6
Continuous
 62
     7
100
AcDbPolyline
 90
        5
 70
     0
 43
0.0
 10
10.41318626562497
 20
27.49034357108354
 10
10.15778185455838
 20
27.49887587215023
 10
9.905831350024982
 20
27.5243573906169
 10
9.660741950292049
 20
27.56644353268359
 10
9.42582806922519
 20
27.6245651554836
  0
LWPOLYLINE
  5
1EEB
330
1E51
100
AcDbEntity
  8
0
  6
Continuous
 62
     7
100
AcDbPolyline
 90
        5
 70
     0
 43
0.0
 10
41.41318626562497
 20
27.49034357108354
 10
41.15778185455837
 20
27.49887587215023
 10
40.90583135002498
 20
27.5243573906169
 10
40.66074195029204
 20
27.56644353268359
 10
40.42582806922519
 20
27.6245651554836
  0
LINE
  5
1EEC
330
1E51
100
AcDbEntity
  8
0
  6
Continuous
 62
     7
100
AcDbLine
 10
59.41318652195832
 20
15.43892494615028
 30
0.0
 11
59.61318652869204
 21
15.32345490395028
 31
0.0
  0
LWPOLYLINE
  5
1EED
330
1E51
100
AcDbEntity
  8
02___PRT_ALL_AXES
  6
Continuous
 62
     7
100
AcDbPolyline
 90
        3
 70
     0
 43
0.0
 10
43.61319140775822
 20
11.17665563381689
 10
43.65074690562505
 20
11.02177461821696
 10
43.66318882502537
 20
10.85373746681693
  0
LINE
  5
1EEE
330
1E51
100
AcDbEntity
  8
0
  6
Continuous
 62
     7
100
AcDbLine
 10
42.66318626562497
 20
10.72262423461694
 30
0.0
 11
42.66318626562497
 21
11.06677009641692
 31
0.0
  0
LINE
  5
1EEF
330
1E51
100
AcDbEntity
  8
0
  6
Continuous
 62
     7
100
AcDbLine
 10
42.66318626562497
 20
28.58013880015028
 30
0.0
 11
42.66318626562497
 21
28.92428466195026
 31
0.0
  0
LINE
  5
1EF0
330
1E51
100
AcDbEntity
  8
02___PRT_ALL_AXES
  6
Continuous
 62
     7
100
AcDbLine
 10
43.61319140775822
 20
28.47025326275025
 30
0.0
 11
43.61319140775822
 21
11.17665563381689
 31
0.0
  0
LINE
  5
1EF1
330
1E51
100
AcDbEntity
  8
02___PRT_ALL_AXES
  6
Continuous
 62
     7
100
AcDbLine
 10
43.61319140775822
 20
30.8234544482836
 30
0.0
 11
43.61319140775822
 21
29.17025099088363
 31
0.0
  0
LINE
  5
1EF2
330
1E51
100
AcDbEntity
  8
02___PRT_ALL_AXES
  6
Continuous
 62
     7
100
AcDbLine
 10
43.61319140775822
 20
10.47665790568356
 30
0.0
 11
43.61319140775822
 21
8.823454448283598
 31
0.0
  0
LINE
  5
1EF3
330
1E51
100
AcDbEntity
  8
0
  6
Continuous
 62
     7
100
AcDbLine
 10
43.91318626562497
 20
31.12345444828361
 30
0.0
 11
43.91318626562497
 21
8.523454448283587
 31
0.0
  0
LINE
  5
1EF4
330
1E51
100
AcDbEntity
  8
0
  6
Continuous
 62
     7
100
AcDbLine
 10
44.11318626562525
 20
31.3234544482836
 30
0.0
 11
44.11318626562525
 21
8.323454448283598
 31
0.0
  0
LWPOLYLINE
  5
1EF5
330
1E51
100
AcDbEntity
  8
02___PRT_ALL_AXES
  6
Continuous
 62
     7
100
AcDbPolyline
 90
        3
 70
     0
 43
0.0
 10
43.66318882502537
 20
10.85373746681693
 10
43.6507402092252
 20
10.67220416781691
 10
43.61319140775822
 20
10.47665790568356
  0
LWPOLYLINE
  5
1EF6
330
1E51
100
AcDbEntity
  8
02___PRT_ALL_AXES
  6
Continuous
 62
     7
100
AcDbPolyline
 90
        3
 70
     0
 43
0.0
 10
43.66318882502537
 20
28.79317142975026
 10
43.65074688849154
 20
28.62513416755025
 10
43.61319140775822
 20
28.47025326275025
  0
LINE
  5
1EF7
330
1E51
100
AcDbEntity
  8
02___PRT_ALL_AXES
  6
Continuous
 62
     7
100
AcDbLine
 10
39.53384360609152
 20
11.55951985668361
 30
0.0
 11
39.8475691519584
 21
11.78118883388356
 31
0.0
  0
LINE
  5
1EF8
330
1E51
100
AcDbEntity
  8
0
  6
Continuous
 62
     7
100
AcDbLine
 10
39.81296425415849
 20
11.76064363841692
 30
0.0
 11
39.84248430342495
 21
11.7782436888836
 31
0.0
  0
LINE
  5
1EF9
330
1E51
100
AcDbEntity
  8
0
  6
Continuous
 62
     7
100
AcDbLine
 10
59.41318652195832
 20
24.20798395041692
 30
0.0
 11
59.61318652869204
 21
24.32345399261692
 31
0.0
  0
LINE
  5
1EFA
330
1E51
100
AcDbEntity
  8
0
  6
Continuous
 62
     7
100
AcDbLine
 10
64.54464808415832
 20
24.15025067495026
 30
0.0
 11
64.84464805395828
 21
24.32345580808357
 31
0.0
  0
LINE
  5
1EFB
330
1E51
100
AcDbEntity
  8
0
  6
Continuous
 62
     7
100
AcDbLine
 10
39.84248430342495
 20
11.7782436888836
 30
0.0
 11
39.99905352429187
 21
11.86134425741693
 31
0.0
  0
LWPOLYLINE
  5
1EFC
330
1E51
100
AcDbEntity
  8
02___PRT_ALL_AXES
  6
Continuous
 62
     7
100
AcDbPolyline
 90
        9
 70
     0
 43
0.0
 10
39.8475691519584
 20
11.78118883388356
 10
40.20635389162499
 20
11.95570138255021
 10
40.63169842215848
 20
12.09023600781694
 10
41.0822266723585
 20
12.16552035155024
 10
41.53168914069192
 20
12.17954458795026
 10
41.95729988995845
 20
12.13784087781692
 10
42.34391442109199
 20
12.05066546201692
 10
42.686284191092
 20
11.92825538915025
 10
42.97853385902499
 20
11.78138856748359
  0
LWPOLYLINE
  5
1EFD
330
1E51
100
AcDbEntity
  8
0
  6
Continuous
 62
     7
100
AcDbPolyline
 90
        7
 70
     0
 43
0.0
 10
39.99905352429187
 20
11.86134425741693
 10
40.20426651389198
 20
11.94897263281694
 10
40.42582806922519
 20
12.0223437410836
 10
40.66074195029204
 20
12.0804653638836
 10
40.90583135002498
 20
12.12255150595024
 10
41.15778185455837
 20
12.14803302441692
 10
41.41318626562497
 20
12.1565653254836
  0
LINE
  5
1EFE
330
1E51
100
AcDbEntity
  8
02___PRT_ALL_AXES
  6
Continuous
 62
     7
100
AcDbLine
 10
73.77248473789177
 20
25.30813938808359
 30
0.0
 11
72.54464883915852
 21
24.79955310641691
 31
0.0
  0
LINE
  5
1EFF
330
1E51
100
AcDbEntity
  8
0
  6
Continuous
 62
     7
100
AcDbLine
 10
72.54464883915852
 20
24.79955310641691
 30
0.0
 11
76.2275286377585
 21
26.32505186761688
 31
0.0
  0
LINE
  5
1F00
330
1E51
100
AcDbEntity
  8
0
  6
Continuous
 62
     7
100
AcDbLine
 10
76.70446733482504
 20
24.08722389368359
 30
0.0
 11
76.69626779875852
 21
24.08382753468362
 31
0.0
  0
LINE
  5
1F01
330
1E51
100
AcDbEntity
  8
0
  6
Continuous
 62
     7
100
AcDbLine
 10
75.81325582075852
 20
26.09185132341691
 30
0.0
 11
73.77248473789177
 21
25.25476281128357
 31
0.0
  0
LINE
  5
1F02
330
1E51
100
AcDbEntity
  8
02___PRT_ALL_AXES
  6
Continuous
 62
     7
100
AcDbLine
 10
43.61319140775822
 20
30.8234544482836
 30
0.0
 11
8.213190692692023
 21
30.8234544482836
 31
0.0
  0
LINE
  5
1F03
330
1E51
100
AcDbEntity
  8
02___PRT_ALL_AXES
  6
Continuous
 62
     7
100
AcDbLine
 10
5.113185653358414
 20
30.8234544482836
 30
0.0
 11
7.713187204091809
 21
30.8234544482836
 31
0.0
  0
LINE
  5
1F04
330
1E51
100
AcDbEntity
  8
02___PRT_ALL_AXES
  6
Continuous
 62
     7
100
AcDbLine
 10
49.21318626562515
 20
31.3234544482836
 30
0.0
 11
44.11318626562525
 21
31.3234544482836
 31
0.0
  0
LINE
  5
1F05
330
1E51
100
AcDbEntity
  8
0
  6
Continuous
 62
     7
100
AcDbLine
 10
40.42582806922519
 20
27.6245651554836
 30
0.0
 11
40.20426651389198
 21
27.69793626375025
 31
0.0
  0
LWPOLYLINE
  5
1F06
330
1E51
100
AcDbEntity
  8
02___PRT_ALL_AXES
  6
Continuous
 62
     7
100
AcDbPolyline
 90
        5
 70
     0
 43
0.0
 10
43.03860304122508
 20
29.60093602615024
 10
43.05660348575838
 20
29.59438191215026
 10
43.28751771022507
 20
29.47515727575023
 10
43.4760371846919
 20
29.33306799728359
 10
43.61319140775822
 20
29.17025099088363
  0
LINE
  5
1F07
330
1E51
100
AcDbEntity
  8
0
  6
Continuous
 62
     7
100
AcDbLine
 10
75.81325582075852
 20
13.55505757315023
 30
0.0
 11
73.77248473789177
 21
14.39214608528363
 31
0.0
  0
LINE
  5
1F08
330
1E51
100
AcDbEntity
  8
02___PRT_ALL_AXES
  6
Continuous
 62
     7
100
AcDbLine
 10
73.77248473789177
 20
14.33876950848361
 30
0.0
 11
72.54464883915852
 21
14.84735579015023
 31
0.0
  0
LINE
  5
1F09
330
1E51
100
AcDbEntity
  8
0
  6
Continuous
 62
     7
100
AcDbLine
 10
76.2275286377585
 20
13.32185702895026
 30
0.0
 11
72.54464883915852
 21
14.84735579015023
 31
0.0
  0
LINE
  5
1F0A
330
1E51
100
AcDbEntity
  8
0
  6
Continuous
 62
     7
100
AcDbLine
 10
76.69626779875852
 20
15.56308136188357
 30
0.0
 11
76.70446733482504
 21
15.55968500288355
 31
0.0
  0
LINE
  5
1F0B
330
1E51
100
AcDbEntity
  8
0
  6
Continuous
 62
     7
100
AcDbLine
 10
40.20426651389198
 20
27.69793626375025
 30
0.0
 11
39.99905352429187
 21
27.78556463915021
 31
0.0
  0
LINE
  5
1F0C
330
1E51
100
AcDbEntity
  8
0
  6
Continuous
 62
     7
100
AcDbLine
 10
39.99905352429187
 20
27.78556463915021
 30
0.0
 11
39.84248430342495
 21
27.86866520768359
 31
0.0
  0
LINE
  5
1F0D
330
1E51
100
AcDbEntity
  8
0
  6
Continuous
 62
     7
100
AcDbLine
 10
64.54464808409193
 20
15.49665822161688
 30
0.0
 11
64.84464805382504
 21
15.32345308855025
 31
0.0
  0
LINE
  5
1F0E
330
1E51
100
AcDbEntity
  8
0
  6
Continuous
 62
     7
100
AcDbLine
 10
39.84248430342495
 20
27.86866520768359
 30
0.0
 11
39.81296425415849
 21
27.88626525815022
 31
0.0
  0
LINE
  5
1F0F
330
1E51
100
AcDbEntity
  8
02___PRT_ALL_AXES
  6
Continuous
 62
     7
100
AcDbLine
 10
39.8460619485586
 20
27.86641231781692
 30
0.0
 11
39.75954476629204
 21
27.91977853595023
 31
0.0
  0
LWPOLYLINE
  5
1F10
330
1E51
100
AcDbEntity
  8
0
  6
Continuous
 62
     7
100
AcDbPolyline
 90
       11
 70
     0
 43
0.0
 10
39.81296425415849
 20
27.88626525815022
 10
39.64851524155847
 20
27.99867631768359
 10
39.50793037729182
 20
28.1212776510169
 10
39.39311083049188
 20
28.25241128548356
 10
39.3056093385585
 20
28.39030386348355
 10
39.24660920902488
 20
28.53309062461693
 10
39.21690831742535
 20
28.67884062275022
 10
39.21690831742535
 20
28.82558283928359
 10
39.24660920902488
 20
28.97133283748355
 10
39.3056093385585
 20
29.1141195985503
 10
39.39311083049188
 20
29.25201217661692
  0
LWPOLYLINE
  5
1F11
330
1E51
100
AcDbEntity
  8
02___PRT_ALL_AXES
  6
Continuous
 62
     7
100
AcDbPolyline
 90
        5
 70
     0
 43
0.0
 10
39.75954476629204
 20
27.91977853595023
 10
39.48865860949172
 20
28.12750994781692
 10
39.28553069702502
 20
28.35471486661692
 10
39.15730953762523
 20
28.59403280715026
 10
39.11318626562525
 20
28.8341269354836
  0
LWPOLYLINE
  5
1F12
330
1E51
100
AcDbEntity
  8
02___PRT_ALL_AXES
  6
Continuous
 62
     7
100
AcDbPolyline
 90
        3
 70
     0
 43
0.0
 10
43.61319140775822
 20
29.17025099088363
 10
43.65074019022495
 20
28.97470487241691
 10
43.66318882502537
 20
28.79317142975026
  0
LINE
  5
1F13
330
1E51
100
AcDbEntity
  8
0
  6
Continuous
 62
     7
100
AcDbLine
 10
49.21318626562515
 20
31.3234544482836
 30
0.0
 11
49.21318626562515
 21
8.323454448283598
 31
0.0
  0
LINE
  5
1F14
330
1E51
100
AcDbEntity
  8
0
  6
Continuous
 62
     7
100
AcDbLine
 10
49.41318626562497
 20
31.12345444828361
 30
0.0
 11
49.41318626562497
 21
8.523454448283587
 31
0.0
  0
LWPOLYLINE
  5
1F15
330
1E51
100
AcDbEntity
  8
02___PRT_ALL_AXES
  6
Continuous
 62
     7
100
AcDbPolyline
 90
        4
 70
     0
 43
0.0
 10
43.61319140775822
 20
10.47665790568356
 10
43.43828767595868
 20
10.28035732901691
 10
43.17980454762483
 20
10.11080966541692
 10
43.06335927129157
 20
10.0628952830836
  0
LINE
  5
1F16
330
1E51
100
AcDbEntity
  8
0
  6
Continuous
 62
     7
100
AcDbLine
 10
43.91318877169169
 20
9.123451952416928
 30
0.0
 11
43.61319140775822
 21
8.823454448283598
 31
0.0
  0
LINE
  5
1F17
330
1E51
100
AcDbEntity
  8
0
  6
Continuous
 62
     7
100
AcDbLine
 10
43.91318877169169
 20
30.52345694415027
 30
0.0
 11
43.61319140775822
 21
30.8234544482836
 31
0.0
  0
LINE
  5
1F18
330
1E51
100
AcDbEntity
  8
0
  6
Continuous
 62
     7
100
AcDbLine
 10
49.41318538062524
 20
8.523455333483582
 30
0.0
 11
49.21318536495846
 21
8.323455349150265
 31
0.0
  0
LINE
  5
1F19
330
1E51
100
AcDbEntity
  8
0
  6
Continuous
 62
     7
100
AcDbLine
 10
62.91318597202508
 20
15.43892501075021
 30
0.0
 11
62.71318596429182
 21
15.32345497028359
 31
0.0
  0
LINE
  5
1F1A
330
1E51
100
AcDbEntity
  8
0
  6
Continuous
 62
     7
100
AcDbLine
 10
62.91318597202508
 20
24.20798388581693
 30
0.0
 11
62.71318596429182
 21
24.32345392628355
 31
0.0
  0
LINE
  5
1F1B
330
1E51
100
AcDbEntity
  8
0
  6
Continuous
 62
     7
100
AcDbLine
 10
49.41318538055838
 20
31.12345356315024
 30
0.0
 11
49.21318536489207
 21
31.32345354748355
 31
0.0
  0
LINE
  5
1F1C
330
1E51
100
AcDbEntity
  8
0
  6
Continuous
 62
     7
100
AcDbLine
 10
59.21318626562515
 20
26.8234544482836
 30
0.0
 11
59.21318626562515
 21
12.8234544482836
 31
0.0
  0
LINE
  5
1F1D
330
1E51
100
AcDbEntity
  8
0
  6
Continuous
 62
     7
100
AcDbLine
 10
59.41318772909153
 20
13.02345298548357
 30
0.0
 11
59.21318777209171
 21
12.82345294241691
 31
0.0
  0
LINE
  5
1F1E
330
1E51
100
AcDbEntity
  8
0
  6
Continuous
 62
     7
100
AcDbLine
 10
59.41318772889189
 20
26.62345591121692
 30
0.0
 11
59.21318777195847
 21
26.82345595428359
 31
0.0
  0
LINE
  5
1F1F
330
1E51
100
AcDbEntity
  8
0
  6
Continuous
 62
     7
100
AcDbLine
 10
59.41318626562497
 20
26.62345444835023
 30
0.0
 11
59.41318626562497
 21
13.02345444821691
 31
0.0
  0
LINE
  5
1F20
330
1E51
100
AcDbEntity
  8
0
  6
Continuous
 62
     7
100
AcDbLine
 10
59.61318626562524
 20
24.3234544482836
 30
0.0
 11
59.61318626562524
 21
15.3234544482836
 31
0.0
  0
LINE
  5
1F21
330
1E51
100
AcDbEntity
  8
0
  6
Continuous
 62
     7
100
AcDbLine
 10
62.71318626562515
 20
24.3234544482836
 30
0.0
 11
62.71318626562515
 21
15.3234544482836
 31
0.0
  0
LINE
  5
1F22
330
1E51
100
AcDbEntity
  8
0
  6
Continuous
 62
     7
100
AcDbLine
 10
62.91318626562542
 20
24.20798439448362
 30
0.0
 11
62.91318626562542
 21
15.43892450208358
 31
0.0
  0
LINE
  5
1F23
330
1E51
100
AcDbEntity
  8
0
  6
Continuous
 62
     7
100
AcDbLine
 10
63.96318626562515
 20
17.3234544482836
 30
0.0
 11
63.96318626562515
 21
22.3234544482836
 31
0.0
  0
LINE
  5
1F24
330
1E51
100
AcDbEntity
  8
0
  6
Continuous
 62
     7
100
AcDbLine
 10
64.54464883915853
 20
15.49665952895026
 30
0.0
 11
64.54464883915853
 21
24.15024936755026
 31
0.0
  0
LINE
  5
1F25
330
1E51
100
AcDbEntity
  8
0
  6
Continuous
 62
     7
100
AcDbLine
 10
64.84464883915871
 20
15.3234544482836
 30
0.0
 11
64.84464883915871
 21
24.3234544482836
 31
0.0
  0
LINE
  5
1F26
330
1E51
100
AcDbEntity
  8
0
  6
Continuous
100
AcDbLine
 10
77.61318626562524
 20
19.8234544482836
 30
0.0
 11
76.70446733482504
 21
18.52576521148359
 31
0.0
  0
LINE
  5
1F27
330
1E51
100
AcDbEntity
  8
0
  6
Continuous
 62
     7
100
AcDbLine
 10
73.77248473789177
 20
14.33876950848361
 30
0.0
 11
73.80152175915873
 21
14.38023560835023
 31
0.0
  0
LINE
  5
1F28
330
1E51
100
AcDbEntity
  8
0
  6
Continuous
100
AcDbLine
 10
77.61318626562524
 20
19.8234544482836
 30
0.0
 11
76.70446733482504
 21
21.12114368508361
 31
0.0
  0
LINE
  5
1F29
330
1E51
100
AcDbEntity
  8
0
  6
Continuous
 62
     7
100
AcDbLine
 10
73.80152175915873
 20
25.26667328821691
 30
0.0
 11
73.77248473789177
 21
25.30813938808359
 31
0.0
  0
LINE
  5
1F2A
330
1E51
100
AcDbEntity
  8
02___PRT_ALL_AXES
  6
Continuous
 62
     7
100
AcDbLine
 10
72.54464883915852
 20
14.84735579015023
 30
0.0
 11
72.54464883915852
 21
24.79955310641691
 31
0.0
  0
LINE
  5
1F2B
330
1E51
100
AcDbEntity
  8
0
  6
Continuous
 62
     7
100
AcDbLine
 10
73.77248473789177
 20
14.33876950848361
 30
0.0
 11
73.77248473789177
 21
14.39214608528363
 31
0.0
  0
LINE
  5
1F2C
330
1E51
100
AcDbEntity
  8
0
  6
Continuous
 62
     7
100
AcDbLine
 10
73.77248473789177
 20
25.25476281128357
 30
0.0
 11
73.77248473789177
 21
25.30813938808359
 31
0.0
  0
LINE
  5
1F2D
330
1E51
100
AcDbEntity
  8
0
  6
Continuous
 62
     7
100
AcDbLine
 10
75.81325582075852
 20
26.09185132341691
 30
0.0
 11
75.81325582075852
 21
13.55505757315023
 31
0.0
  0
LINE
  5
1F2E
330
1E51
100
AcDbEntity
  8
0
  6
Continuous
 62
     7
100
AcDbLine
 10
76.2641004612251
 20
26.09185132341691
 30
0.0
 11
76.2641004612251
 21
13.55505757315023
 31
0.0
  0
LINE
  5
1F2F
330
1E51
100
AcDbEntity
  8
0
  6
Continuous
 62
     7
100
AcDbLine
 10
76.70446733482504
 20
24.04572918255025
 30
0.0
 11
76.70446733482504
 21
15.60117971401695
 31
0.0
  0
LINE
  5
1F30
330
1E51
100
AcDbEntity
  8
0
  6
Continuous
 62
     7
100
AcDbLine
 10
76.70446733482504
 20
15.55968500288355
 30
0.0
 11
76.2275286377585
 21
13.32185702895026
 31
0.0
  0
LINE
  5
1F31
330
1E51
100
AcDbEntity
  8
0
  6
Continuous
100
AcDbLine
 10
76.70446733482504
 20
15.55968500288355
 30
0.0
 11
77.61318626562524
 21
19.8234544482836
 31
0.0
  0
LINE
  5
1F32
330
1E51
100
AcDbEntity
  8
0
  6
Continuous
 62
     7
100
AcDbLine
 10
76.70446733482504
 20
15.60117971401695
 30
0.0
 11
76.2641004612251
 21
13.55505757315023
 31
0.0
  0
LINE
  5
1F33
330
1E51
100
AcDbEntity
  8
0
  6
Continuous
 62
     7
100
AcDbLine
 10
76.70446733482504
 20
24.04572918255025
 30
0.0
 11
76.2641004612251
 21
26.09185132341691
 31
0.0
  0
LINE
  5
1F34
330
1E51
100
AcDbEntity
  8
0
  6
Continuous
 62
     7
100
AcDbLine
 10
76.2275286377585
 20
26.32505186761688
 30
0.0
 11
76.70446733482504
 21
24.08722389368359
 31
0.0
  0
LINE
  5
1F35
330
1E51
100
AcDbEntity
  8
0
  6
Continuous
100
AcDbLine
 10
76.70446733482504
 20
24.08722389368359
 30
0.0
 11
77.61318626562524
 21
19.8234544482836
 31
0.0
  0
ENDBLK
  5
1F36
330
1E51
100
AcDbEntity
  8
0
100
AcDbBlockEnd
  0
BLOCK
  5
1F3A
330
1F37
100
AcDbEntity
  8
0
100
AcDbBlockBegin
  2
A$C217E344C
 70
     0
 10
0.0
 20
0.0
 30
0.0
  3
A$C217E344C
  1

  0
LINE
  5
1F3B
330
1F37
100
AcDbEntity
  8
0
  6
Continuous
 62
     7
100
AcDbLine
 10
10.61903407103273
 20
5.231602809099399
 30
0.0
 11
10.99941157729927
 21
7.938129400232696
 31
0.0
  0
LINE
  5
1F3C
330
1F37
100
AcDbEntity
  8
0
  6
Continuous
 62
     7
100
AcDbLine
 10
12.00058802289914
 20
15.06186996823271
 30
0.0
 11
12.38096552916613
 21
17.76839655936601
 31
0.0
  0
LINE
  5
1F3D
330
1F37
100
AcDbEntity
  8
0
  6
Continuous
 62
     7
100
AcDbLine
 10
12.38096552916613
 20
5.231602809099399
 30
0.0
 11
12.00058802289914
 21
7.938129400232696
 31
0.0
  0
LINE
  5
1F3E
330
1F37
100
AcDbEntity
  8
0
  6
Continuous
 62
     7
100
AcDbLine
 10
10.99941157729927
 20
15.06186996823271
 30
0.0
 11
10.61903407103273
 21
17.76839655936601
 31
0.0
  0
CIRCLE
  5
1F3F
330
1F37
100
AcDbEntity
  8
0
  6
Continuous
 62
     7
100
AcDbCircle
 10
3.056252113232403
 20
6.624999684232648
 30
0.0
 40
1.349968612533333
  0
ARC
  5
1F40
330
1F37
100
AcDbEntity
  8
0
  6
Continuous
 62
     2
100
AcDbCircle
 10
3.056252113232403
 20
6.624999684232648
 30
0.0
 40
1.25
100
AcDbArc
 50
255.0000000000056
 51
195.0000000000007
  0
CIRCLE
  5
1F41
330
1F37
100
AcDbEntity
  8
0
  6
Continuous
 62
     7
100
AcDbCircle
 10
3.056252113232403
 20
6.624999684232648
 30
0.0
 40
1.049999999999999
  0
CIRCLE
  5
1F42
330
1F37
100
AcDbEntity
  8
0
  6
Continuous
 62
     7
100
AcDbCircle
 10
11.49999980009943
 20
11.49999968423265
 30
0.0
 40
11.5
  0
CIRCLE
  5
1F43
330
1F37
100
AcDbEntity
  8
0
  6
Continuous
 62
     7
100
AcDbCircle
 10
11.49999980009943
 20
11.49999968423265
 30
0.0
 40
11.29999854813333
  0
CIRCLE
  5
1F44
330
1F37
100
AcDbEntity
  8
0
  6
Continuous
 62
     7
100
AcDbCircle
 10
11.49999980009943
 20
11.49999968423265
 30
0.0
 40
7.0
  0
CIRCLE
  5
1F45
330
1F37
100
AcDbEntity
  8
0
  6
Continuous
 62
     7
100
AcDbCircle
 10
11.49999980009943
 20
11.49999968423265
 30
0.0
 40
6.800000496733333
  0
CIRCLE
  5
1F46
330
1F37
100
AcDbEntity
  8
0
  6
Continuous
 62
     7
100
AcDbCircle
 10
11.49999980009943
 20
11.49999968423265
 30
0.0
 40
6.700000782333333
  0
CIRCLE
  5
1F47
330
1F37
100
AcDbEntity
  8
0
  6
Continuous
 62
     7
100
AcDbCircle
 10
11.49999980009943
 20
11.49999968423265
 30
0.0
 40
6.5
  0
ARC
  5
1F48
330
1F37
100
AcDbEntity
  8
0
  6
Continuous
 62
     7
100
AcDbCircle
 10
11.49999980009943
 20
11.49999968423265
 30
0.0
 40
6.329999999999999
100
AcDbArc
 50
278.0000000000137
 51
81.99999999998622
  0
ARC
  5
1F49
330
1F37
100
AcDbEntity
  8
0
  6
Continuous
 62
     7
100
AcDbCircle
 10
11.49999980009943
 20
11.49999968423265
 30
0.0
 40
6.329999999999999
100
AcDbArc
 50
98.00000000001377
 51
261.9999999999862
  0
ARC
  5
1F4A
330
1F37
100
AcDbEntity
  8
0
  6
Continuous
 62
     7
100
AcDbCircle
 10
11.49999980009943
 20
11.49999968423265
 30
0.0
 40
6.299999210733333
100
AcDbArc
 50
262.0201162354896
 51
277.9798732255151
  0
ARC
  5
1F4B
330
1F37
100
AcDbEntity
  8
0
  6
Continuous
 62
     7
100
AcDbCircle
 10
11.49999980009943
 20
11.49999968423265
 30
0.0
 40
6.299999210733333
100
AcDbArc
 50
82.02011623548957
 51
97.97987322551509
  0
ARC
  5
1F4C
330
1F37
100
AcDbEntity
  8
0
  6
Continuous
 62
     7
100
AcDbCircle
 10
11.49999980009943
 20
11.49999968423265
 30
0.0
 40
5.484684939799999
100
AcDbArc
 50
81.99999999998622
 51
98.00000000001377
  0
ARC
  5
1F4D
330
1F37
100
AcDbEntity
  8
0
  6
Continuous
 62
     7
100
AcDbCircle
 10
11.49999980009943
 20
11.49999968423265
 30
0.0
 40
5.484684939799999
100
AcDbArc
 50
261.9999999999862
 51
278.0000000000137
  0
ARC
  5
1F4E
330
1F37
100
AcDbEntity
  8
0
  6
Continuous
 62
     7
100
AcDbCircle
 10
11.49999980009943
 20
11.49999968423265
 30
0.0
 40
4.263769445399999
100
AcDbArc
 50
98.00000000001377
 51
261.9999999999862
  0
ARC
  5
1F4F
330
1F37
100
AcDbEntity
  8
0
  6
Continuous
 62
     7
100
AcDbCircle
 10
11.49999980009943
 20
11.49999968423265
 30
0.0
 40
4.263769445399999
100
AcDbArc
 50
278.0000000000137
 51
81.99999999998622
  0
ARC
  5
1F50
330
1F37
100
AcDbEntity
  8
0
  6
Continuous
 62
     7
100
AcDbCircle
 10
11.49999980009943
 20
11.49999968423265
 30
0.0
 40
3.596874822533333
100
AcDbArc
 50
81.99999999998622
 51
98.00000000001377
  0
ARC
  5
1F51
330
1F37
100
AcDbEntity
  8
0
  6
Continuous
 62
     7
100
AcDbCircle
 10
11.49999980009943
 20
11.49999968423265
 30
0.0
 40
3.596874822533333
100
AcDbArc
 50
261.9999999999862
 51
278.0000000000137
  0
CIRCLE
  5
1F52
330
1F37
100
AcDbEntity
  8
02___PRT_ALL_AXES
  6
Continuous
 62
     7
100
AcDbCircle
 10
11.49999980009943
 20
11.49999968423265
 30
0.0
 40
3.342773023466666
  0
CIRCLE
  5
1F53
330
1F37
100
AcDbEntity
  8
0
  6
Continuous
 62
     7
100
AcDbCircle
 10
11.49999980009943
 20
11.49999968423265
 30
0.0
 40
2.673196196599999
  0
CIRCLE
  5
1F54
330
1F37
100
AcDbEntity
  8
0
  6
Continuous
 62
     7
100
AcDbCircle
 10
11.49999980009943
 20
11.49999968423265
 30
0.0
 40
2.5
  0
CIRCLE
  5
1F55
330
1F37
100
AcDbEntity
  8
0
  6
Continuous
 62
     7
100
AcDbCircle
 10
11.49999980009943
 20
11.49999968423265
 30
0.0
 40
2.474999999999999
  0
CIRCLE
  5
1F56
330
1F37
100
AcDbEntity
  8
0
  6
Continuous
 62
     7
100
AcDbCircle
 10
11.49999980009943
 20
11.49999968423265
 30
0.0
 40
2.199972844133333
  0
CIRCLE
  5
1F57
330
1F37
100
AcDbEntity
  8
0
  6
Continuous
 62
     7
100
AcDbCircle
 10
19.9437474870324
 20
6.624999684232648
 30
0.0
 40
1.349968612533333
  0
ARC
  5
1F58
330
1F37
100
AcDbEntity
  8
0
  6
Continuous
 62
     2
100
AcDbCircle
 10
19.9437474870324
 20
6.624999684232648
 30
0.0
 40
1.25
100
AcDbArc
 50
255.0000000000056
 51
195.0000000000007
  0
CIRCLE
  5
1F59
330
1F37
100
AcDbEntity
  8
0
  6
Continuous
 62
     7
100
AcDbCircle
 10
19.9437474870324
 20
6.624999684232648
 30
0.0
 40
1.049999999999999
  0
CIRCLE
  5
1F5A
330
1F37
100
AcDbEntity
  8
0
  6
Continuous
 62
     7
100
AcDbCircle
 10
11.49999980009943
 20
21.24999968423265
 30
0.0
 40
1.349968612533333
  0
ARC
  5
1F5B
330
1F37
100
AcDbEntity
  8
0
  6
Continuous
 62
     2
100
AcDbCircle
 10
11.49999980009943
 20
21.24999968423265
 30
0.0
 40
1.25
100
AcDbArc
 50
255.0000000000056
 51
195.0000000000007
  0
CIRCLE
  5
1F5C
330
1F37
100
AcDbEntity
  8
0
  6
Continuous
 62
     7
100
AcDbCircle
 10
11.49999980009943
 20
21.24999968423265
 30
0.0
 40
1.049999999999999
  0
ENDBLK
  5
1F5D
330
1F37
100
AcDbEntity
  8
0
100
AcDbBlockEnd
  0
BLOCK
  5
1FBD
330
1F79
100
AcDbEntity
  8
0
 62
   255
100
AcDbBlockBegin
  2
new A3-S11
 70
     0
 10
0.0
 20
0.0
 30
0.0
  3
new A3-S11
  1

  0
LINE
  5
1FCB
330
1F79
100
AcDbEntity
  8
0
  6
Continuous
 62
   255
100
AcDbLine
 10
795.462730356111
 20
-277.0
 30
0.0
 11
795.462730356111
 21
0.0
 31
0.0
  0
LINE
  5
1FCC
330
1F79
100
AcDbEntity
  8
0
  6
Continuous
 62
   255
100
AcDbLine
 10
412.4627639465111
 20
-277.0
 30
0.0
 11
795.462730356111
 21
-277.0
 31
0.0
  0
LINE
  5
1FCD
330
1F79
100
AcDbEntity
  8
0
  6
Continuous
 62
   255
100
AcDbLine
 10
402.4627639465111
 20
0.0
 30
0.0
 11
402.4627639465111
 21
-222.0000000000001
 31
0.0
  0
LINE
  5
1FCE
330
1F79
100
AcDbEntity
  8
0
  6
Continuous
 62
   255
100
AcDbLine
 10
402.4627639465111
 20
0.0
 30
0.0
 11
795.462730356111
 21
0.0
 31
0.0
  0
LINE
  5
1FCF
330
1F79
100
AcDbEntity
  8
1
 62
     2
100
AcDbLine
 10
615.4627303561103
 20
-240.7736213082135
 30
0.0
 11
615.4627303561103
 21
-233.1532223398645
 31
0.0
1001
AcDbBlockRepETag
1070
     1
1071
     2034
1005
0
  0
LINE
  5
1FD0
330
1F79
100
AcDbEntity
  8
1
 62
     2
100
AcDbLine
 10
755.4627303560963
 20
-240.7736213082135
 30
0.0
 11
615.4627303561103
 21
-240.7736213082135
 31
0.0
1001
AcDbBlockRepETag
1070
     1
1071
     2035
1005
0
  0
LINE
  5
1FD1
330
1F79
100
AcDbEntity
  8
1
 62
     2
100
AcDbLine
 10
755.4627303560963
 20
-233.1532223398645
 30
0.0
 11
755.4627303560963
 21
-240.7736213082135
 31
0.0
1001
AcDbBlockRepETag
1070
     1
1071
     2036
1005
0
  0
LINE
  5
1FD2
330
1F79
100
AcDbEntity
  8
1
 62
     2
100
AcDbLine
 10
615.4627303561103
 20
-233.1532223398645
 30
0.0
 11
755.4627303560963
 21
-233.1532223398645
 31
0.0
1001
AcDbBlockRepETag
1070
     1
1071
     2037
1005
0
  0
LINE
  5
1FD3
330
1F79
100
AcDbEntity
  8
0
  6
Continuous
 62
   255
100
AcDbLine
 10
412.4627639465111
 20
-222.0
 30
0.0
 11
412.4627639465111
 21
-277.0
 31
0.0
1001
AcDbBlockRepETag
1070
     1
1071
     1946
1005
0
  0
LINE
  5
1FD4
330
1F79
100
AcDbEntity
  8
0
  6
Continuous
 62
   255
100
AcDbLine
 10
412.4627639465111
 20
-222.0
 30
0.0
 11
402.4627639465111
 21
-222.0
 31
0.0
  0
LINE
  5
1FD5
330
1F79
100
AcDbEntity
  8
0
  6
CENTER
 62
     2
 48
0.2
370
     9
100
AcDbLine
 10
790.0016616277157
 20
-260.4561080562671
 30
0.0
 11
790.0016616277157
 21
-253.4561099688349
 31
0.0
1001
AcDbBlockRepETag
1070
     1
1071
        1
1005
0
  0
LINE
  5
1FD6
330
1F79
100
AcDbEntity
  8
0
  6
CENTER
 62
     2
 48
0.2
370
     9
100
AcDbLine
 10
775.6438450240919
 20
-256.956109012551
 30
0.0
 11
784.6438425650753
 21
-256.956109012551
 31
0.0
1001
AcDbBlockRepETag
1070
     1
1071
        9
1005
0
  0
LINE
  5
1FD7
330
1F79
100
AcDbEntity
  8
0
  6
Continuous
 62
   255
100
AcDbLine
 10
784.1438427016878
 20
-253.8561098595453
 30
0.0
 11
776.1438448874794
 21
-255.4561094223869
 31
0.0
1001
AcDbBlockRepETag
1070
     1
1071
       10
1005
0
  0
LINE
  5
1FD8
330
1F79
100
AcDbEntity
  8
0
  6
Continuous
 62
   255
100
AcDbLine
 10
784.1438427016878
 20
-260.0561081655568
 30
0.0
 11
784.1438427016878
 21
-253.8561098595453
 31
0.0
1001
AcDbBlockRepETag
1070
     1
1071
       11
1005
0
  0
LINE
  5
1FD9
330
1F79
100
AcDbEntity
  8
0
  6
Continuous
 62
   255
100
AcDbLine
 10
776.1438448874794
 20
-258.4561086027151
 30
0.0
 11
784.1438427016878
 21
-260.0561081655568
 31
0.0
1001
AcDbBlockRepETag
1070
     1
1071
       12
1005
0
  0
LINE
  5
1FDA
330
1F79
100
AcDbEntity
  8
0
  6
Continuous
 62
   255
100
AcDbLine
 10
776.1438448874794
 20
-255.4561094223869
 30
0.0
 11
776.1438448874794
 21
-258.4561086027151
 31
0.0
1001
AcDbBlockRepETag
1070
     1
1071
       13
1005
0
  0
LINE
  5
1FDB
330
1F79
100
AcDbEntity
  8
0
  6
Continuous
 62
   255
100
AcDbLine
 10
732.4627505746857
 20
-255.0000010928959
 30
0.0
 11
732.4627505746857
 21
-273.0000010928959
 31
0.0
1001
AcDbBlockRepETag
1070
     1
1071
       20
1005
0
  0
LINE
  5
1FDC
330
1F79
100
AcDbEntity
  8
0
  6
Continuous
 62
   255
100
AcDbLine
 10
647.4627707932584
 20
-255.0000010928961
 30
0.0
 11
647.4627707932584
 21
-273.0000010928959
 31
0.0
1001
AcDbBlockRepETag
1070
     1
1071
       22
1005
0
  0
LINE
  5
1FDD
330
1F79
100
AcDbEntity
  8
0
  6
Continuous
 62
   255
100
AcDbLine
 10
612.4627803560981
 20
-233.1532223398645
 30
0.0
 11
612.4627803560981
 21
-277.0
 31
0.0
1001
AcDbBlockRepETag
1070
     1
1071
       26
1005
0
  0
LINE
  5
1FDE
330
1F79
100
AcDbEntity
  8
0
  6
Continuous
 62
   255
100
AcDbLine
 10
587.4627871866977
 20
-257.5000053278675
 30
0.0
 11
587.462787186698
 21
-277.0
 31
0.0
1001
AcDbBlockRepETag
1070
     1
1071
       29
1005
0
  0
LINE
  5
1FDF
330
1F79
100
AcDbEntity
  8
0
  6
Continuous
 62
     2
370
     9
100
AcDbLine
 10
429.4627803560981
 20
-266.5000028688518
 30
0.0
 11
612.4627803560981
 21
-266.5000028688518
 31
0.0
1001
AcDbBlockRepETag
1070
     1
1071
       30
1005
0
  0
LINE
  5
1FE0
330
1F79
100
AcDbEntity
  8
0
  6
Continuous
 62
   255
100
AcDbLine
 10
429.4627803560981
 20
-271.0000016393439
 30
0.0
 11
612.4627803560981
 21
-271.0000016393439
 31
0.0
1001
AcDbBlockRepETag
1070
     1
1071
       31
1005
0
  0
LINE
  5
1FE1
330
1F79
100
AcDbEntity
  8
0
  6
Continuous
 62
   255
100
AcDbLine
 10
429.4627803560981
 20
-277.0
 30
0.0
 11
429.4627803560979
 21
-233.1532223398645
 31
0.0
1001
AcDbBlockRepETag
1070
     1
1071
       32
1005
0
  0
LINE
  5
1FE2
330
1F79
100
AcDbEntity
  8
0
  6
Continuous
 62
     2
370
     9
100
AcDbLine
 10
612.4627803560981
 20
-262.0000040983596
 30
0.0
 11
429.4627803560981
 21
-262.0000040983596
 31
0.0
1001
AcDbBlockRepETag
1070
     1
1071
       33
1005
0
  0
LINE
  5
1FE3
330
1F79
100
AcDbEntity
  8
0
  6
Continuous
 62
   255
100
AcDbLine
 10
562.4627940172972
 20
-257.5000053278675
 30
0.0
 11
562.4627940172975
 21
-277.0
 31
0.0
1001
AcDbBlockRepETag
1070
     1
1071
       34
1005
0
  0
LINE
  5
1FE4
330
1F79
100
AcDbEntity
  8
0
  6
Continuous
 62
   255
100
AcDbLine
 10
537.4628008478957
 20
-257.5000053278675
 30
0.0
 11
537.4628008478957
 21
-277.0
 31
0.0
1001
AcDbBlockRepETag
1070
     1
1071
       35
1005
0
  0
LINE
  5
1FE5
330
1F79
100
AcDbEntity
  8
0
  6
Continuous
 62
   255
100
AcDbLine
 10
436.362828470839
 20
-257.5000053278675
 30
0.0
 11
436.362828470839
 21
-277.0
 31
0.0
1001
AcDbBlockRepETag
1070
     1
1071
       36
1005
0
  0
LINE
  5
1FE6
330
1F79
100
AcDbEntity
  8
0
  6
CENTER
 62
     2
 48
0.2
370
     9
100
AcDbLine
 10
786.4016626113227
 20
-256.956109012551
 30
0.0
 11
793.5016606714325
 21
-256.956109012551
 31
0.0
1001
AcDbBlockRepETag
1070
     1
1071
       37
1005
0
  0
LINE
  5
1FE7
330
1F79
100
AcDbEntity
  8
0
  6
Continuous
 62
   255
100
AcDbLine
 10
795.4627303561112
 20
-273.0000010928959
 30
0.0
 11
612.4627803560981
 21
-273.0000010928959
 31
0.0
1001
AcDbBlockRepETag
1070
     1
1071
       38
1005
0
  0
CIRCLE
  5
1FE8
330
1F79
100
AcDbEntity
  8
0
  6
Continuous
 62
   255
100
AcDbCircle
 10
790.0016616277157
 20
-256.956109012551
 30
0.0
 40
3.099999153005696
1001
AcDbBlockRepETag
1070
     1
1071
       39
1005
0
  0
CIRCLE
  5
1FE9
330
1F79
100
AcDbEntity
  8
0
  6
Continuous
 62
   255
100
AcDbCircle
 10
790.0016616277157
 20
-256.956109012551
 30
0.0
 40
1.499999590164046
1001
AcDbBlockRepETag
1070
     1
1071
       40
1005
0
  0
MTEXT
  5
1FEA
330
1F79
100
AcDbEntity
  8
0
 62
   255
100
AcDbMText
 10
742.4886817458279
 20
-258.0961633175244
 30
0.0
 40
3.0
 41
0.0
 46
0.0
 71
     1
 72
     5
  1
Scale: X:1
 73
     1
 44
1.0
1001
AcDbBlockRepETag
1070
     1
1071
       46
1005
0
  0
MTEXT
  5
1FEB
330
1F79
100
AcDbEntity
  8
0
 62
   255
100
AcDbMText
 10
785.9761987320682
 20
-266.1776207634082
 30
0.0
 40
4.5
 41
0.0
 46
0.0
 71
     1
 72
     5
  1
{\fISOCPEUR|b0|i0|c0|p34;\W1;A3}
  7
SLDTEXTSTYLE0
 73
     1
 44
1.0
1001
AcDbBlockRepETag
1070
     1
1071
       50
1005
0
  0
TEXT
  5
1FEC
330
1F79
100
AcDbEntity
  8
0
  6
Continuous
 62
   255
100
AcDbText
 10
615.999552743995
 20
-275.600626952933
 30
0.0
 40
1.72391304347826
  1
This drawing remains our property. Without written approval it may not be copied, reproduced, communicated or made available to third parties.
100
AcDbText
1001
AcDbBlockRepETag
1070
     1
1071
       51
1005
0
  0
MTEXT
  5
1FED
330
1F79
100
AcDbEntity
  8
0
 62
   255
100
AcDbMText
 10
430.8431967639346
 20
-272.4012695934838
 30
0.0
 40
1.999999453552061
 41
0.0
 46
0.0
 71
     1
 72
     5
  1
No.
 73
     1
 44
1.0
1001
AcDbBlockRepETag
1070
     1
1071
       52
1005
0
  0
MTEXT
  5
1FEE
330
1F79
100
AcDbEntity
  8
0
 62
   255
100
AcDbMText
 10
465.3543791596414
 20
-272.5568974675624
 30
0.0
 40
1.999999453552061
 41
0.0
 46
0.0
 71
     1
 72
     5
  1
Modifications
 73
     1
 44
1.0
1001
AcDbBlockRepETag
1070
     1
1071
       53
1005
0
  0
MTEXT
  5
1FEF
330
1F79
100
AcDbEntity
  8
0
 62
   255
100
AcDbMText
 10
516.3394128285574
 20
-272.4090513971577
 30
0.0
 40
1.999999453552061
 41
0.0
 46
0.0
 71
     1
 72
     5
  1
Communication
 73
     1
 44
1.0
1001
AcDbBlockRepETag
1070
     1
1071
       54
1005
0
  0
MTEXT
  5
1FF0
330
1F79
100
AcDbEntity
  8
0
 62
   255
100
AcDbMText
 10
546.4272744208374
 20
-272.4579818509886
 30
0.0
 40
1.999999453552061
 41
0.0
 46
0.0
 71
     1
 72
     5
  1
Drawn
 73
     1
 44
1.0
1001
AcDbBlockRepETag
1070
     1
1071
       55
1005
0
  0
MTEXT
  5
1FF1
330
1F79
100
AcDbEntity
  8
0
 62
   255
100
AcDbMText
 10
594.082408871658
 20
-272.537497781863
 30
0.0
 40
1.999999453552061
 41
0.0
 46
0.0
 71
     1
 72
     5
  1
Approved
 73
     1
 44
1.0
1001
AcDbBlockRepETag
1070
     1
1071
       56
1005
0
  0
MTEXT
  5
1FF2
330
1F79
100
AcDbEntity
  8
0
 62
   255
100
AcDbMText
 10
747.2395558258272
 20
-266.23226977527
 30
0.0
 40
4.5
 41
0.0
 46
0.0
 71
     1
 72
     5
  1
{\fISOCPEUR|b0|i0|c0|p34;\W1;\C256;Drg. No.}
  7
SLDTEXTSTYLE0
 73
     1
 44
1.0
1001
AcDbBlockRepETag
1070
     1
1071
       58
1005
0
  0
MTEXT
  5
1FF3
102
{ACAD_XDICTIONARY
360
20B8
102
}
330
1F79
100
AcDbEntity
  8
0
 62
   255
100
AcDbMText
 10
690.4446702144996
 20
-257.668031930731
 30
0.0
 40
4.5
 41
0.0
 46
0.0
 71
     1
 72
     5
  1
\pi-15.075;{\fISOCPEUR|b0|i0|c0|p34;\W1;Description\P\pi-21.15;Outline drawing}
  7
SLDTEXTSTYLE0
 73
     1
 44
1.0
1001
AcDbBlockRepETag
1070
     1
1071
       59
1005
0
  0
MTEXT
  5
1FF4
330
1F79
100
AcDbEntity
  8
0
 62
     1
100
AcDbMText
 10
614.8696824671969
 20
-259.2996853159084
 30
0.0
 40
5.0
 41
0.0
 46
0.0
 71
     1
 72
     5
  1
{\fISOCPEUR|b0|i0|c0|p34;\W1;Portescap}
  7
SLDTEXTSTYLE0
 73
     1
 44
1.0
1001
AcDbBlockRepETag
1070
     1
1071
       65
1005
0
  0
LINE
  5
1FF5
330
1F79
100
AcDbEntity
  8
0
  6
Continuous
 62
   255
100
AcDbLine
 10
512.4628076784954
 20
-257.5000053278675
 30
0.0
 11
512.4628076784956
 21
-277.0
 31
0.0
1001
AcDbBlockRepETag
1070
     1
1071
       66
1005
0
  0
MTEXT
  5
1FF6
330
1F79
100
AcDbEntity
  8
0
 62
   255
100
AcDbMText
 10
569.768144688197
 20
-272.4579818509886
 30
0.0
 40
1.999999453552061
 41
0.0
 46
0.0
 71
     1
 72
     5
  1
Checked
 73
     1
 44
1.0
1001
AcDbBlockRepETag
1070
     1
1071
       67
1005
0
  0
LINE
  5
1FF7
330
1F79
100
AcDbEntity
  8
0
  6
Continuous
 62
   255
100
AcDbLine
 10
773.534358534004
 20
-250.0008059763035
 30
0.0
 11
773.534358534003
 21
-264.0000010928961
 31
0.0
1001
AcDbBlockRepETag
1070
     1
1071
        5
1005
0
  0
TEXT
  5
1FF8
330
1F79
100
AcDbEntity
  8
0
  6
Continuous
 62
   255
100
AcDbText
 10
779.6181708028425
 20
-275.600626952933
 30
0.0
 40
1.72391304347826
  1
Sheet 1 of 1
100
AcDbText
1001
AcDbBlockRepETag
1070
     1
1071
       51
1005
0
  0
INSERT
  5
1FF9
330
1F79
100
AcDbEntity
  8
0
 62
   255
100
AcDbBlockReference
  2
A$C08716F59
 10
429.4627803560979
 20
-257.5000053278673
 30
0.0
  0
LINE
  5
1FFA
330
1F79
100
AcDbEntity
  8
0
  6
Continuous
 62
   255
100
AcDbLine
 10
647.4627707932584
 20
-269.0000021857919
 30
0.0
 11
612.4627803560981
 21
-269.0000021857919
 31
0.0
1001
AcDbBlockRepETag
1070
     1
1071
       38
1005
0
  0
TEXT
  5
1FFB
330
1F79
100
AcDbEntity
  8
0
  6
Continuous
 62
   255
100
AcDbText
 10
615.999552743995
 20
-271.7908875797558
 30
0.0
 40
1.72391304347826
  1
PI/R&D/F/18 Rev 00
100
AcDbText
1001
AcDbBlockRepETag
1070
     1
1071
       51
1005
0
  0
MTEXT
  5
1FFC
330
1F79
100
AcDbEntity
  8
0
  6
Continuous
 62
   255
100
AcDbMText
 10
614.3222225762045
 20
-248.3998440810558
 30
0.0
 40
2.1
 41
122.5201940634145
 46
0.0
 71
     7
 72
     1
  1
Unless & otherwise specified, all dimensions and tolerances are in mm.
  7
style1
 73
     1
 44
1.0
1001
AcDbBlockRepETag
1070
     1
1071
       64
1005
0
  0
LINE
  5
1FFD
330
1F79
100
AcDbEntity
  8
0
  6
Continuous
 62
   255
100
AcDbLine
 10
612.4627803560981
 20
-250.0008059763035
 30
0.0
 11
795.4627303561112
 21
-250.0008059763035
 31
0.0
1001
AcDbBlockRepETag
1070
     1
1071
        3
1005
0
  0
LINE
  5
1FFE
330
1F79
100
AcDbEntity
  8
0
  6
Continuous
 62
   255
100
AcDbLine
 10
773.5343585340038
 20
-255.000001092896
 30
0.0
 11
747.743499713406
 21
-255.0000010928961
 31
0.0
1001
AcDbBlockRepETag
1070
     1
1071
       38
1005
0
  0
LINE
  5
1FFF
330
1F79
100
AcDbEntity
  8
0
  6
Continuous
 62
   255
100
AcDbLine
 10
795.4627303561112
 20
-264.0000010928959
 30
0.0
 11
732.4627505746859
 21
-264.0000010928962
 31
0.0
1001
AcDbBlockRepETag
1070
     1
1071
       38
1005
0
  0
MTEXT
  5
2000
330
1F79
100
AcDbEntity
  8
1
 62
     4
100
AcDbMText
 10
408.137763946511
 20
-249.4153946635623
 30
0.0
 40
4.5
 41
49.18666449634293
 46
0.0
 71
     2
 72
     5
  1
{\C256;Drg. No.}
 11
-0.0000000000000002
 21
-1.0
 31
0.0
 73
     1
 44
1.0
  0
LINE
  5
2001
330
1F79
100
AcDbEntity
  8
0
  6
Continuous
 62
   255
100
AcDbLine
 10
783.462730356111
 20
-273.0000010928959
 30
0.0
 11
783.4627303561108
 21
-264.000001092896
 31
0.0
  0
MTEXT
  5
2002
330
1F79
100
AcDbEntity
  8
1
 62
     3
100
AcDbMText
 10
616.955855400455
 20
-235.2485951401709
 30
0.0
 40
3.5
 41
134.8361601943441
 46
0.0
 71
     1
 72
     5
  1
Technology: Description - no. x.xxx.xx.xxxx
 73
     1
 44
1.0
  0
LINE
  5
2003
330
1F79
100
AcDbEntity
  8
0
  6
Continuous
 62
   255
100
AcDbLine
 10
657.5563534752002
 20
-250.0008059763033
 30
0.0
 11
657.5563534752006
 21
-255.000001092896
 31
0.0
1001
AcDbBlockRepETag
1070
     1
1071
       22
1005
0
  0
LINE
  5
2004
330
1F79
100
AcDbEntity
  8
0
  6
Continuous
 62
   255
100
AcDbLine
 10
747.7434997134055
 20
-250.0008059763033
 30
0.0
 11
747.743499713406
 21
-255.000001092896
 31
0.0
1001
AcDbBlockRepETag
1070
     1
1071
       22
1005
0
  0
LINE
  5
2005
330
1F79
100
AcDbEntity
  8
0
  6
Continuous
 62
   255
100
AcDbLine
 10
777.1060302804662
 20
-277.0
 30
0.0
 11
777.106030280466
 21
-273.0000010928959
 31
0.0
  0
MTEXT
  5
2006
330
1F79
100
AcDbEntity
  8
0
 62
   255
100
AcDbMText
 10
614.2184337595852
 20
-251.1665621572582
 30
0.0
 40
2.5
 41
0.0
 46
0.0
 71
     1
 72
     5
  1
Drawn:
 73
     1
 44
1.0
1001
AcDbBlockRepETag
1070
     1
1071
       46
1005
0
  0
MTEXT
  5
2007
330
1F79
100
AcDbEntity
  8
0
 62
   255
100
AcDbMText
 10
659.8380221434101
 20
-251.1665621572539
 30
0.0
 40
2.5
 41
0.0
 46
0.0
 71
     1
 72
     5
  1
Checked:
 73
     1
 44
1.0
1001
AcDbBlockRepETag
1070
     1
1071
       46
1005
0
  0
MTEXT
  5
2008
330
1F79
100
AcDbEntity
  8
0
 62
   255
100
AcDbMText
 10
705.588009643413
 20
-251.1665621572539
 30
0.0
 40
2.5
 41
0.0
 46
0.0
 71
     1
 72
     5
  1
Approved:
 73
     1
 44
1.0
1001
AcDbBlockRepETag
1070
     1
1071
       46
1005
0
  0
MTEXT
  5
2009
330
1F79
100
AcDbEntity
  8
0
 62
   255
100
AcDbMText
 10
749.3687540007138
 20
-251.1665621572497
 30
0.0
 40
2.5
 41
0.0
 46
0.0
 71
     1
 72
     5
  1
Revision No: 00
 73
     1
 44
1.0
1001
AcDbBlockRepETag
1070
     1
1071
       46
1005
0
  0
LINE
  5
200A
330
1F79
100
AcDbEntity
  8
0
  6
Continuous
 62
   255
100
AcDbLine
 10
747.7434997134057
 20
-255.0000010928962
 30
0.0
 11
612.4627803560981
 21
-255.0000010928959
 31
0.0
1001
AcDbBlockRepETag
1070
     1
1071
       38
1005
0
  0
LINE
  5
200B
330
1F79
100
AcDbEntity
  8
0
  6
Continuous
 62
   255
100
AcDbLine
 10
702.6499265943025
 20
-250.0008059762993
 30
0.0
 11
702.649926594303
 21
-255.0000010928919
 31
0.0
1001
AcDbBlockRepETag
1070
     1
1071
       22
1005
0
  0
ENDBLK
  5
1FBE
330
1F79
100
AcDbEntity
  8
0
 62
   255
100
AcDbBlockEnd
  0
ENDSEC
  0
SECTION
  2
ENTITIES
  0
LINE
  5
19C6
330
2
100
AcDbEntity
  8
1
 62
   255
100
AcDbLine
 10
1974.423185841897
 20
813.802952939471
 30
0.0
 11
1999.20998952358
 21
813.802952939471
 31
0.0
1001
AcDbBlockRepETag
1070
     1
1071
     4362
1005
0
  0
LINE
  5
19C7
330
2
100
AcDbEntity
  8
1
 62
   255
100
AcDbLine
 10
1999.209989523579
 20
791.802952939471
 30
0.0
 11
1974.423185841897
 21
791.802952939471
 31
0.0
1001
AcDbBlockRepETag
1070
     1
1071
     4363
1005
0
  0
LINE
  5
19C8
330
2
100
AcDbEntity
  8
1
 62
   255
100
AcDbLine
 10
1974.249987658647
 20
813.7029529394711
 30
0.0
 11
1974.249987658647
 21
791.902952939471
 31
0.0
1001
AcDbBlockRepETag
1070
     1
1071
     4364
1005
0
  0
LINE
  5
19C9
330
2
100
AcDbEntity
  8
1
 62
     2
100
AcDbLine
 10
1974.423192739404
 20
813.802952939471
 30
0.0
 11
1974.423192739404
 21
791.802952939471
 31
0.0
1001
AcDbBlockRepETag
1070
     1
1071
     4365
1005
0
  0
LINE
  5
19CA
330
2
100
AcDbEntity
  8
1
 62
   255
100
AcDbLine
 10
1974.249987658647
 20
813.7029529394711
 30
0.0
 11
1974.423192739404
 21
813.802952939471
 31
0.0
1001
AcDbBlockRepETag
1070
     1
1071
     4366
1005
0
  0
LINE
  5
19CB
330
2
100
AcDbEntity
  8
1
 62
   255
100
AcDbLine
 10
1974.423192739404
 20
791.802952939471
 30
0.0
 11
1974.249987658647
 21
791.902952939471
 31
0.0
1001
AcDbBlockRepETag
1070
     1
1071
     4367
1005
0
  0
LINE
  5
19CC
330
2
100
AcDbEntity
  8
1
 62
   255
100
AcDbLine
 10
1973.022786195028
 20
802.4303032086605
 30
0.0
 11
1972.749987658647
 21
802.4303032086605
 31
0.0
1001
AcDbBlockRepETag
1070
     1
1071
     4368
1005
0
  0
LINE
  5
19CD
330
2
100
AcDbEntity
  8
1
 62
   255
100
AcDbLine
 10
1972.749987658647
 20
803.1756026702815
 30
0.0
 11
1973.022786195028
 21
803.1756026702815
 31
0.0
1001
AcDbBlockRepETag
1070
     1
1071
     4369
1005
0
  0
LINE
  5
19CE
330
2
100
AcDbEntity
  8
1
 62
   255
100
AcDbLine
 10
1972.749987658647
 20
813.7029529394711
 30
0.0
 11
1974.249987658647
 21
813.7029529394711
 31
0.0
1001
AcDbBlockRepETag
1070
     1
1071
     4370
1005
0
  0
LINE
  5
19CF
330
2
100
AcDbEntity
  8
1
 62
   255
100
AcDbLine
 10
1973.395435925838
 20
813.7029529394711
 30
0.0
 11
1972.749987658647
 21
813.3303032086606
 31
0.0
1001
AcDbBlockRepETag
1070
     1
1071
     4371
1005
0
  0
LINE
  5
19D0
330
2
100
AcDbEntity
  8
1
 62
   255
100
AcDbLine
 10
1972.749987658647
 20
813.2529529394711
 30
0.0
 11
1972.549987658647
 21
813.2529529394711
 31
0.0
1001
AcDbBlockRepETag
1070
     1
1071
     4372
1005
0
  0
LINE
  5
19D1
330
2
100
AcDbEntity
  8
1
 62
   255
100
AcDbLine
 10
1972.749987658647
 20
791.902952939471
 30
0.0
 11
1972.749987658647
 21
813.7029529394711
 31
0.0
1001
AcDbBlockRepETag
1070
     1
1071
     4373
1005
0
  0
LINE
  5
19D2
330
2
100
AcDbEntity
  8
1
 62
   255
100
AcDbLine
 10
1974.249987658647
 20
791.902952939471
 30
0.0
 11
1972.749987658647
 21
791.902952939471
 31
0.0
1001
AcDbBlockRepETag
1070
     1
1071
     4374
1005
0
  0
LINE
  5
19D3
330
2
100
AcDbEntity
  8
1
 62
   255
100
AcDbLine
 10
1972.549987658647
 20
792.352952939471
 30
0.0
 11
1972.549987658647
 21
813.2529529394711
 31
0.0
1001
AcDbBlockRepETag
1070
     1
1071
     4375
1005
0
  0
LINE
  5
19D4
330
2
100
AcDbEntity
  8
1
 62
   255
100
AcDbLine
 10
1972.749987658647
 20
792.2756026702814
 30
0.0
 11
1973.395435925838
 21
791.902952939471
 31
0.0
1001
AcDbBlockRepETag
1070
     1
1071
     4376
1005
0
  0
LINE
  5
19D5
330
2
100
AcDbEntity
  8
1
 62
   255
100
AcDbLine
 10
1972.549987658647
 20
792.352952939471
 30
0.0
 11
1972.749987658647
 21
792.352952939471
 31
0.0
1001
AcDbBlockRepETag
1070
     1
1071
     4377
1005
0
  0
LINE
  5
19D6
330
2
100
AcDbEntity
  8
1
 62
   255
100
AcDbLine
 10
1971.549987658647
 20
799.7380880997199
 30
0.0
 11
1971.449987658647
 21
799.7380880997199
 31
0.0
1001
AcDbBlockRepETag
1070
     1
1071
     4378
1005
0
  0
LINE
  5
19D7
330
2
100
AcDbEntity
  8
1
 62
   255
100
AcDbLine
 10
1971.449987658647
 20
805.8678177792225
 30
0.0
 11
1971.449987658647
 21
799.7380880997199
 31
0.0
1001
AcDbBlockRepETag
1070
     1
1071
     4379
1005
0
  0
LINE
  5
19D8
330
2
100
AcDbEntity
  8
1
 62
   255
100
AcDbLine
 10
1971.549987658647
 20
810.5029529394711
 30
0.0
 11
1972.549987658647
 21
810.5029529394711
 31
0.0
1001
AcDbBlockRepETag
1070
     1
1071
     4380
1005
0
  0
LINE
  5
19D9
330
2
100
AcDbEntity
  8
1
 62
   255
100
AcDbLine
 10
1971.449987658647
 20
805.8678177792225
 30
0.0
 11
1971.549987658647
 21
805.8678177792225
 31
0.0
1001
AcDbBlockRepETag
1070
     1
1071
     4381
1005
0
  0
LINE
  5
19DA
330
2
100
AcDbEntity
  8
1
 62
   255
100
AcDbLine
 10
1971.549987658647
 20
795.102952939471
 30
0.0
 11
1972.549987658647
 21
795.102952939471
 31
0.0
1001
AcDbBlockRepETag
1070
     1
1071
     4382
1005
0
  0
LINE
  5
19DB
330
2
100
AcDbEntity
  8
1
 62
   255
100
AcDbLine
 10
1971.549987658647
 20
795.102952939471
 30
0.0
 11
1971.549987658647
 21
810.5029529394711
 31
0.0
1001
AcDbBlockRepETag
1070
     1
1071
     4383
1005
0
  0
ARC
  5
19DC
330
2
100
AcDbEntity
  8
1
 62
   255
100
AcDbCircle
 10
1973.022786195028
 20
802.8029529394711
 30
0.0
 40
0.3726497308104881
100
AcDbArc
 50
270.0
 51
90.0
1001
AcDbBlockRepETag
1070
     1
1071
     4384
1005
0
  0
ARC
  5
19DD
330
2
100
AcDbEntity
  8
1
 62
   255
100
AcDbCircle
 10
1973.022786195028
 20
802.8029529394711
 30
0.0
 40
0.3726497308104881
100
AcDbArc
 50
270.0
 51
90.0
1001
AcDbBlockRepETag
1070
     1
1071
     4385
1005
0
  0
LINE
  5
19DF
330
2
100
AcDbEntity
  8
0
 62
   255
100
AcDbLine
 10
2004.649987658655
 20
797.8029529394711
 30
0.0
 11
2004.649987658655
 21
802.8029529394711
 31
0.0
1001
AcDbBlockRepETag
1070
     1
1071
     4871
1005
0
  0
LINE
  5
19E0
330
2
100
AcDbEntity
  8
0
 62
   255
100
AcDbLine
 10
2003.649987658655
 20
792.302952939471
 30
0.0
 11
2003.649987658655
 21
802.8029529394711
 31
0.0
1001
AcDbBlockRepETag
1070
     1
1071
     4872
1005
0
  0
LINE
  5
19E1
330
2
100
AcDbEntity
  8
0
 62
   255
100
AcDbLine
 10
1999.309987658655
 20
791.902951091496
 30
0.0
 11
1999.209989523579
 21
791.802952939471
 31
0.0
1001
AcDbBlockRepETag
1070
     1
1071
     4873
1005
0
  0
LINE
  5
19E2
330
2
100
AcDbEntity
  8
0
 62
   255
100
AcDbLine
 10
2000.62595552663
 20
791.8779529394711
 30
0.0
 11
2003.649987658655
 21
792.302952939471
 31
0.0
1001
AcDbBlockRepETag
1070
     1
1071
     4874
1005
0
  0
LINE
  5
19E3
330
2
100
AcDbEntity
  8
0
 62
   255
100
AcDbLine
 10
1999.309987658655
 20
791.8434931080961
 30
0.0
 11
2000.62595552663
 21
791.8779529394711
 31
0.0
1001
AcDbBlockRepETag
1070
     1
1071
     4875
1005
0
  0
LINE
  5
19E4
330
2
100
AcDbEntity
  8
0
 62
   255
100
AcDbLine
 10
2003.649987658655
 20
797.8029529394711
 30
0.0
 11
2004.649987658655
 21
797.8029529394711
 31
0.0
1001
AcDbBlockRepETag
1070
     1
1071
     4876
1005
0
  0
LINE
  5
19E5
330
2
100
AcDbEntity
  8
0
 62
   255
100
AcDbLine
 10
2000.62595552663
 20
791.8779529394711
 30
0.0
 11
2000.62595552663
 21
802.8029529394711
 31
0.0
1001
AcDbBlockRepETag
1070
     1
1071
     4877
1005
0
  0
LINE
  5
19E6
330
2
100
AcDbEntity
  8
0
 62
   255
100
AcDbLine
 10
1999.309987658655
 20
791.8434931080961
 30
0.0
 11
1999.309987658655
 21
802.8029529394711
 31
0.0
1001
AcDbBlockRepETag
1070
     1
1071
     4878
1005
0
  0
LINE
  5
19E7
330
2
100
AcDbEntity
  8
0
100
AcDbLine
 10
2005.149987658655
 20
800.552952939471
 30
0.0
 11
2005.149987658655
 21
805.052952939471
 31
0.0
1001
AcDbBlockRepETag
1070
     1
1071
     4879
1005
0
  0
LINE
  5
19E8
330
2
100
AcDbEntity
  8
0
100
AcDbLine
 10
2004.649987658655
 20
800.552952939471
 30
0.0
 11
2005.149987658655
 21
800.552952939471
 31
0.0
1001
AcDbBlockRepETag
1070
     1
1071
     4880
1005
0
  0
LINE
  5
19E9
330
2
100
AcDbEntity
  8
0
 62
   255
100
AcDbLine
 10
2004.649987658655
 20
807.802952939471
 30
0.0
 11
2004.649987658655
 21
802.8029529394711
 31
0.0
1001
AcDbBlockRepETag
1070
     1
1071
     4881
1005
0
  0
LINE
  5
19EA
330
2
100
AcDbEntity
  8
0
 62
   255
100
AcDbLine
 10
2003.649987658655
 20
813.3029529394711
 30
0.0
 11
2003.649987658655
 21
802.8029529394711
 31
0.0
1001
AcDbBlockRepETag
1070
     1
1071
     4882
1005
0
  0
LINE
  5
19EB
330
2
100
AcDbEntity
  8
0
 62
   255
100
AcDbLine
 10
1999.309987658655
 20
813.7029547874462
 30
0.0
 11
1999.209989523579
 21
813.802952939471
 31
0.0
1001
AcDbBlockRepETag
1070
     1
1071
     4883
1005
0
  0
LINE
  5
19EC
330
2
100
AcDbEntity
  8
0
 62
   255
100
AcDbLine
 10
2000.62595552663
 20
813.727952939471
 30
0.0
 11
2003.649987658655
 21
813.3029529394711
 31
0.0
1001
AcDbBlockRepETag
1070
     1
1071
     4884
1005
0
  0
LINE
  5
19ED
330
2
100
AcDbEntity
  8
0
 62
   255
100
AcDbLine
 10
1999.309987658655
 20
813.7624127708459
 30
0.0
 11
2000.62595552663
 21
813.727952939471
 31
0.0
1001
AcDbBlockRepETag
1070
     1
1071
     4885
1005
0
  0
LINE
  5
19EE
330
2
100
AcDbEntity
  8
0
 62
   255
100
AcDbLine
 10
2003.649987658655
 20
807.802952939471
 30
0.0
 11
2004.649987658655
 21
807.802952939471
 31
0.0
1001
AcDbBlockRepETag
1070
     1
1071
     4886
1005
0
  0
LINE
  5
19EF
330
2
100
AcDbEntity
  8
0
 62
   255
100
AcDbLine
 10
2000.62595552663
 20
813.727952939471
 30
0.0
 11
2000.62595552663
 21
802.8029529394711
 31
0.0
1001
AcDbBlockRepETag
1070
     1
1071
     4887
1005
0
  0
LINE
  5
19F0
330
2
100
AcDbEntity
  8
0
 62
   255
100
AcDbLine
 10
1999.309987658655
 20
813.7624127708459
 30
0.0
 11
1999.309987658655
 21
802.8029529394711
 31
0.0
1001
AcDbBlockRepETag
1070
     1
1071
     4888
1005
0
  0
LINE
  5
19F1
330
2
100
AcDbEntity
  8
0
100
AcDbLine
 10
2004.649987658655
 20
805.052952939471
 30
0.0
 11
2005.149987658655
 21
805.052952939471
 31
0.0
1001
AcDbBlockRepETag
1070
     1
1071
     4890
1005
0
  0
LINE
  5
19F2
330
2
100
AcDbEntity
  8
1
 62
   255
100
AcDbLine
 10
2010.891572732044
 20
803.5529529293343
 30
0.0
 11
2005.149987658655
 21
803.5529529295857
 31
0.0
1001
AcDbBlockRepETag
1070
     1
1071
     4891
1005
0
  0
ARC
  5
19F3
330
2
100
AcDbEntity
  8
1
 62
   255
100
AcDbCircle
 10
2010.891572732042
 20
803.5029529293343
 30
0.0
 40
0.05
100
AcDbArc
 50
70.89339464913535
 51
89.99999999709485
1001
AcDbBlockRepETag
1070
     1
1071
     4893
1005
0
  0
LINE
  5
19F4
330
2
100
AcDbEntity
  8
1
 62
     2
100
AcDbLine
 10
2010.899987658647
 20
802.8029529394711
 30
0.0
 11
2010.899987658647
 21
803.4529529394712
 31
0.0
1001
AcDbBlockRepETag
1070
     1
1071
        2
1005
0
  0
LINE
  5
19F5
330
2
100
AcDbEntity
  8
1
 62
   255
100
AcDbLine
 10
2011.149987658647
 20
803.4307558809469
 30
0.0
 11
2011.149987658647
 21
802.8029529394711
 31
0.0
1001
AcDbBlockRepETag
1070
     1
1071
        4
1005
0
  0
ARC
  5
19F6
330
2
100
AcDbEntity
  8
1
 62
   255
100
AcDbCircle
 10
2011.099987658647
 20
803.4307558809469
 30
0.0
 40
0.05
100
AcDbArc
 50
0.0
 51
70.89339464913535
1001
AcDbBlockRepETag
1070
     1
1071
     4892
1005
0
  0
LINE
  5
19F7
330
2
100
AcDbEntity
  8
1
 62
   255
100
AcDbLine
 10
2011.116354000415
 20
803.4780014400732
 30
0.0
 11
2010.90793907381
 21
803.5501984884605
 31
0.0
1001
AcDbBlockRepETag
1070
     1
1071
        6
1005
0
  0
DIMENSION
  5
1A00
102
{ACAD_XDICTIONARY
360
1CA4
102
}
330
2
100
AcDbEntity
  8
0
 62
     2
100
AcDbDimension
  2
*D21
 10
2023.519566719401
 20
797.8029529394711
 30
0.0
 11
2022.028570279541
 21
801.2344225628524
 31
0.0
 70
   160
  1
%%C10 h8
 71
     5
 42
10.0
 73
     0
 74
     0
 75
     0
  3
DMST_1
100
AcDbAlignedDimension
 13
2004.649987658655
 23
807.802952939471
 33
0.0
 14
2004.649987658655
 24
797.8029529394711
 34
0.0
 50
90.0
100
AcDbRotatedDimension
1001
ACAD
1000
DSTYLE
1002
{
1070
    40
1040
2.0
1002
}
  0
DIMENSION
  5
1A01
330
2
100
AcDbEntity
  8
0
 62
     2
100
AcDbDimension
  2
*D22
 10
2011.149987658647
 20
787.4315091261386
 30
0.0
 11
2008.149987658651
 21
788.5315091261386
 31
0.0
 70
    32
  1
6{\H0.57143x;%%P0.25}
 71
     5
 42
5.999999999992496
 73
     0
 74
     0
 75
     0
  3
DMST_1
100
AcDbAlignedDimension
 13
2005.149987658655
 23
800.552952939471
 33
0.0
 14
2011.149987658647
 24
802.1751499979952
 34
0.0
100
AcDbRotatedDimension
1001
ACAD
1000
DSTYLE
1002
{
1070
    40
1040
2.0
1002
}
  0
DIMENSION
  5
1A02
330
2
100
AcDbEntity
  8
0
 62
     2
100
AcDbDimension
  2
*D23
 10
2011.149987658647
 20
780.6383506662694
 30
0.0
 11
2007.533180249321
 21
781.7383506662694
 31
0.0
 70
   160
  1
7.5{\H0.57143x;%%P0.25}
 71
     5
 42
7.499999999992724
 73
     0
 74
     0
 75
     0
  3
DMST_1
100
AcDbAlignedDimension
 13
2003.649987658655
 23
792.302952939471
 33
0.0
 14
2011.149987658647
 24
802.8029529394711
 34
0.0
100
AcDbRotatedDimension
1001
ACAD
1000
DSTYLE
1002
{
1070
    40
1040
2.0
1002
}
  0
LINE
  5
1A03
330
2
100
AcDbEntity
  8
1
 62
   255
100
AcDbLine
 10
2010.891572732044
 20
802.0529529496078
 30
0.0
 11
2005.149987658655
 21
802.0529529493563
 31
0.0
1001
AcDbBlockRepETag
1070
     1
1071
     4891
1005
0
  0
ARC
  5
1A04
330
2
100
AcDbEntity
  8
1
 62
   255
100
AcDbCircle
 10
2010.891572732042
 20
802.1029529496077
 30
0.0
 40
0.05
100
AcDbArc
 50
270.0000000029052
 51
289.1066053508646
1001
AcDbBlockRepETag
1070
     1
1071
     4893
1005
0
  0
LINE
  5
1A05
330
2
100
AcDbEntity
  8
1
 62
     2
100
AcDbLine
 10
2010.899987658647
 20
802.8029529394711
 30
0.0
 11
2010.899987658647
 21
802.152952939471
 31
0.0
1001
AcDbBlockRepETag
1070
     1
1071
        2
1005
0
  0
LINE
  5
1A06
330
2
100
AcDbEntity
  8
1
 62
   255
100
AcDbLine
 10
2011.149987658647
 20
802.1751499979952
 30
0.0
 11
2011.149987658647
 21
802.8029529394711
 31
0.0
1001
AcDbBlockRepETag
1070
     1
1071
        4
1005
0
  0
ARC
  5
1A07
330
2
100
AcDbEntity
  8
1
 62
   255
100
AcDbCircle
 10
2011.099987658647
 20
802.1751499979952
 30
0.0
 40
0.05
100
AcDbArc
 50
289.1066053508646
 51
0.0
1001
AcDbBlockRepETag
1070
     1
1071
     4892
1005
0
  0
LINE
  5
1A08
330
2
100
AcDbEntity
  8
1
 62
   255
100
AcDbLine
 10
2011.116354000415
 20
802.1279044388689
 30
0.0
 11
2010.90793907381
 21
802.0557073904816
 31
0.0
1001
AcDbBlockRepETag
1070
     1
1071
        6
1005
0
  0
MTEXT
  5
1A09
330
2
100
AcDbEntity
  8
0
 62
     3
100
AcDbMText
 10
2021.928642068721
 20
804.9548071217882
 30
0.0
 40
0.8
 41
0.0
 46
0.0
 71
     5
 72
     1
  1
\A1;0\P   -0.022
 11
0.0000000000000001
 21
1.0
 31
0.0
 73
     1
 44
1.0
  0
DIMENSION
  5
1A0A
330
2
100
AcDbEntity
  8
0
 62
     2
100
AcDbDimension
  2
*D24
 10
2004.649987658655
 20
783.9714740617085
 30
0.0
 11
2007.899987658651
 21
785.0714740617086
 31
0.0
 70
    32
  1
<>
 71
     5
 42
6.499999999992496
 73
     0
 74
     0
 75
     0
  3
DMST_1
100
AcDbAlignedDimension
 13
2011.149987658647
 23
802.1751499979952
 33
0.0
 14
2004.649987658655
 24
797.8029529394711
 34
0.0
100
AcDbRotatedDimension
1001
ACAD
1000
DSTYLE
1002
{
1070
    40
1040
2.0
1002
}
  0
DIMENSION
  5
1A0B
102
{ACAD_XDICTIONARY
360
1D44
102
}
330
2
100
AcDbEntity
  8
0
 62
     2
100
AcDbDimension
  2
*D25
 10
2019.033480253919
 20
800.552952939471
 30
0.0
 11
2019.033480253919
 21
792.256508766433
 31
0.0
 70
   160
  1
%%C4.5
 71
     5
 42
4.5
 73
     0
 74
     0
 75
     0
  3
DMST_1
100
AcDbAlignedDimension
 13
2005.149987658655
 23
805.052952939471
 33
0.0
 14
2005.149987658655
 24
800.552952939471
 34
0.0
 50
90.0
100
AcDbRotatedDimension
1001
ACAD
1000
DSTYLE
1002
{
1070
    40
1040
2.0
1070
   279
1070
     1
1002
}
  0
MTEXT
  5
1A0C
330
2
100
AcDbEntity
  8
0
 62
     3
100
AcDbMText
 10
2017.761457541081
 20
795.2246020286955
 30
0.0
 40
0.8
 41
0.0
 46
0.0
 71
     5
 72
     1
  1
\A1;0\P-0.1
 11
0.0000000000000001
 21
1.0
 31
0.0
 73
     1
 44
1.0
  0
DIMENSION
  5
1A0D
102
{ACAD_XDICTIONARY
360
1D12
102
}
330
2
100
AcDbEntity
  8
0
 62
     2
100
AcDbDimension
  2
*D26
 10
2015.279805573337
 20
802.0529529496078
 30
0.0
 11
2014.090664234557
 21
791.9523039195638
 31
0.0
 70
   160
  1
%%C1.5
 71
     5
 42
1.499999979726453
 73
     0
 74
     0
 75
     0
  3
DMST_1
100
AcDbAlignedDimension
 13
2010.891572732042
 23
803.5529529293343
 33
0.0
 14
2010.891572732042
 24
802.0529529496078
 34
0.0
 50
90.0
100
AcDbRotatedDimension
1001
ACAD
1000
DSTYLE
1002
{
1070
    40
1040
2.0
1070
   279
1070
     1
1002
}
  0
MTEXT
  5
1A0E
330
2
100
AcDbEntity
  8
0
 62
     3
100
AcDbMText
 10
2013.922532855876
 20
795.3585926569648
 30
0.0
 40
0.8
 41
0.0
 46
0.0
 71
     5
 72
     1
  1
\A1;-0.006\P-0.009
 11
0.0000000000000001
 21
1.0
 31
0.0
 73
     1
 44
1.0
  0
LEADER
  5
1A0F
330
2
100
AcDbEntity
  8
0
 62
     2
100
AcDbLeader
  3
DMST_1
 76
     2
 10
1996.690931218897
 20
813.802952939471
 30
0.0
 10
1996.690931218897
 20
822.2235676815705
 30
0.0
211
-1.0
221
0.0000000000000001
231
0.0
1001
ACAD
1000
DSTYLE
1002
{
1070
   147
1040
0.2
1070
    77
1070
     0
1070
    40
1040
2.0
1002
}
  0
MTEXT
  5
1A10
330
2
100
AcDbEntity
  8
0
 62
     3
100
AcDbMText
 10
1995.404783966309
 20
818.1147639760828
 30
0.0
 40
1.4
 41
0.0
 46
0.0
 71
     5
 72
     1
  1
\A1;%%C22
 11
0.0000000000000001
 21
1.0
 31
0.0
 73
     1
 44
1.0
  0
MTEXT
  5
1A11
330
2
100
AcDbEntity
  8
0
 62
     3
100
AcDbMText
 10
1995.391340206038
 20
820.8403898095443
 30
0.0
 40
0.8
 41
0.0
 46
0.0
 71
     5
 72
     1
  1
\A1;0\P-0.1
 11
0.0000000000000001
 21
1.0
 31
0.0
 73
     1
 44
1.0
  0
LINE
  5
1A12
330
2
100
AcDbEntity
  8
0
 62
   255
100
AcDbLine
 10
1966.049987658641
 20
797.9029529394709
 30
0.0
 11
1966.049987658641
 21
797.7029529394709
 31
0.0
1001
AcDbBlockRepETag
1070
     1
1071
     4661
1005
775
  0
LINE
  5
1A13
330
2
100
AcDbEntity
  8
0
 62
   255
100
AcDbLine
 10
1971.549987658647
 20
797.9029529394709
 30
0.0
 11
1966.049987658641
 21
797.9029529394709
 31
0.0
1001
AcDbBlockRepETag
1070
     1
1071
     4662
1005
776
  0
LINE
  5
1A14
330
2
100
AcDbEntity
  8
0
 62
   255
100
AcDbLine
 10
1971.549987658647
 20
797.7029529394709
 30
0.0
 11
1966.049987658641
 21
797.7029529394709
 31
0.0
1001
AcDbBlockRepETag
1070
     1
1071
     4663
1005
777
  0
LINE
  5
1A15
330
2
100
AcDbEntity
  8
0
 62
   255
100
AcDbLine
 10
1966.049987658641
 20
807.7029529394708
 30
0.0
 11
1971.549987658647
 21
807.7029529394708
 31
0.0
1001
AcDbBlockRepETag
1070
     1
1071
     4667
1005
778
  0
LINE
  5
1A16
330
2
100
AcDbEntity
  8
0
 62
   255
100
AcDbLine
 10
1966.049987658641
 20
807.9029529394709
 30
0.0
 11
1971.549987658647
 21
807.9029529394709
 31
0.0
1001
AcDbBlockRepETag
1070
     1
1071
     4668
1005
779
  0
LINE
  5
1A17
330
2
100
AcDbEntity
  8
0
 62
   255
100
AcDbLine
 10
1966.049987658641
 20
807.9029529394709
 30
0.0
 11
1966.049987658641
 21
807.7029529394708
 31
0.0
1001
AcDbBlockRepETag
1070
     1
1071
     4669
1005
77A
  0
DIMENSION
  5
1A18
330
2
100
AcDbEntity
  8
0
100
AcDbDimension
  2
*D27
 10
2003.649987658655
 20
783.9714740617085
 30
0.0
 11
2001.295909717651
 21
785.1024835044868
 31
0.0
 70
   160
 71
     5
 73
     0
 74
     0
 75
     0
  3
DMST_1
100
AcDbAlignedDimension
 13
2004.649987658655
 23
797.8029529394711
 33
0.0
 14
2003.649987658655
 24
792.302952939471
 34
0.0
100
AcDbRotatedDimension
1001
ACAD
1000
DSTYLE
1002
{
1070
    40
1040
2.0
1002
}
  0
LINE
  5
1A19
330
2
100
AcDbEntity
  8
0
 62
     2
100
AcDbLine
 10
2003.649987658655
 20
783.9714740617085
 30
0.0
 11
2004.649987658655
 21
783.9714740617085
 31
0.0
  0
DIMENSION
  5
1A1A
330
2
100
AcDbEntity
  8
0
100
AcDbDimension
  2
*D28
 10
1971.549987658647
 20
780.6383506662694
 30
0.0
 11
1987.599987658651
 21
781.7383506662694
 31
0.0
 70
    32
  1
32
 71
     5
 42
32.10000000000718
 73
     0
 74
     0
 75
     0
  3
DMST_1
100
AcDbAlignedDimension
 13
2003.649987658655
 23
792.302952939471
 33
0.0
 14
1971.549987658647
 24
795.102952939471
 34
0.0
100
AcDbRotatedDimension
1001
ACAD
1000
DSTYLE
1002
{
1070
    40
1040
2.0
1002
}
  0
DIMENSION
  5
1A1B
330
2
100
AcDbEntity
  8
0
100
AcDbDimension
  2
*D29
 10
1971.549987658647
 20
780.6383506662694
 30
0.0
 11
1968.799987658644
 21
781.7383506662694
 31
0.0
 70
    32
 71
     5
 42
5.500000000007048
 73
     0
 74
     0
 75
     0
  3
DMST_1
100
AcDbAlignedDimension
 13
1966.049987658641
 23
797.7029529394709
 33
0.0
 14
1971.549987658647
 24
795.102952939471
 34
0.0
100
AcDbRotatedDimension
1001
ACAD
1000
DSTYLE
1002
{
1070
    40
1040
2.0
1002
}
  0
DIMENSION
  5
1A1C
330
2
100
AcDbEntity
  8
0
100
AcDbDimension
  2
*D30
 10
1972.749987658647
 20
787.4315091261386
 30
0.0
 11
1978.626014454049
 21
787.2345229924238
 31
0.0
 70
   160
 71
     5
 42
1.5
 73
     0
 74
     0
 75
     0
  3
DMST_1
100
AcDbAlignedDimension
 13
1974.249987658647
 23
791.902952939471
 33
0.0
 14
1972.749987658647
 24
791.902952939471
 34
0.0
100
AcDbRotatedDimension
1001
ACAD
1000
DSTYLE
1002
{
1070
   343
1005
0
1070
   173
1070
     1
1070
   344
1005
EF2
1070
    40
1040
2.0
1070
   279
1070
     1
1002
}
  0
DIMENSION
  5
1A1D
330
2
100
AcDbEntity
  8
0
100
AcDbDimension
  2
*D31
 10
1972.749987658647
 20
787.4315091261386
 30
0.0
 11
1968.771707015376
 21
787.461808295131
 31
0.0
 70
   160
 71
     5
 42
1.200000000000045
 73
     0
 74
     0
 75
     0
  3
DMST_1
100
AcDbAlignedDimension
 13
1971.549987658647
 23
795.102952939471
 33
0.0
 14
1972.749987658647
 24
791.902952939471
 34
0.0
100
AcDbRotatedDimension
1001
ACAD
1000
DSTYLE
1002
{
1070
   344
1005
EF2
1070
   173
1070
     1
1070
   343
1005
0
1070
    40
1040
2.0
1070
   279
1070
     1
1002
}
  0
LINE
  5
1A1E
330
2
100
AcDbEntity
  8
0
 62
     2
100
AcDbLine
 10
1968.749987658647
 20
787.4315091261386
 30
0.0
 11
1967.535726138253
 21
787.4315091261386
 31
0.0
  0
LEADER
  5
1A1F
330
2
100
AcDbEntity
  8
0
 62
     2
100
AcDbLeader
  3
DMST_1
 76
     2
 10
1973.499987658647
 20
813.7029529394711
 30
0.0
 10
1973.499987658647
 20
822.1235676815705
 30
0.0
211
-1.0
221
0.0000000000000001
231
0.0
1001
ACAD
1000
DSTYLE
1002
{
1070
   147
1040
0.2
1070
    77
1070
     0
1070
    40
1040
2.0
1002
}
  0
MTEXT
  5
1A20
330
2
100
AcDbEntity
  8
0
 62
     3
100
AcDbMText
 10
1972.525469238977
 20
818.5600578222725
 30
0.0
 40
1.4
 41
0.0
 46
0.0
 71
     5
 72
     1
  1
\A1;%%C21.8
 11
0.0000000000000001
 21
1.0
 31
0.0
 73
     1
 44
1.0
  0
LINE
  5
1A21
330
2
100
AcDbEntity
  8
0
 62
     2
100
AcDbLine
 10
1971.250614501726
 20
810.5029529394709
 30
0.0
 11
1966.624539901623
 21
810.5029529394711
 31
0.0
  0
LEADER
  5
1A22
330
2
100
AcDbEntity
  8
0
 62
     2
100
AcDbLeader
  3
DMST_1
 76
     2
 10
1967.372322280262
 20
810.5029529394709
 30
0.0
 10
1967.372322280262
 20
818.9235676815703
 30
0.0
211
-1.0
221
0.0000000000000001
231
0.0
1001
ACAD
1000
DSTYLE
1002
{
1070
   147
1040
0.2
1070
    77
1070
     0
1070
    40
1040
2.0
1002
}
  0
MTEXT
  5
1A23
330
2
100
AcDbEntity
  8
0
 62
     3
100
AcDbMText
 10
1966.397803860592
 20
815.3600578222723
 30
0.0
 40
1.4
 41
0.0
 46
0.0
 71
     5
 72
     1
  1
\A1;%%C15.4
 11
0.0000000000000001
 21
1.0
 31
0.0
 73
     1
 44
1.0
  0
LINE
  5
1A24
330
2
100
AcDbEntity
  8
0
  6
CENTER
 62
     2
100
AcDbLine
 10
1935.738813975984
 20
802.8029529394709
 30
0.0
 11
1911.538813975984
 21
802.8029529394709
 31
0.0
  0
CIRCLE
  5
1A25
330
2
100
AcDbEntity
  8
0
 62
   255
100
AcDbCircle
 10
1923.638813975984
 20
802.8029529394709
 30
0.0
 40
11.0
  0
CIRCLE
  5
1A26
330
2
100
AcDbEntity
  8
0
 62
   255
100
AcDbCircle
 10
1923.638813975984
 20
802.8029529394709
 30
0.0
 40
10.50000000000011
  0
LINE
  5
1A27
330
2
100
AcDbEntity
  8
0
  6
CENTER
 62
     2
100
AcDbLine
 10
1923.638813975984
 20
790.702952939471
 30
0.0
 11
1923.638813975984
 21
814.9029529394709
 31
0.0
  0
LINE
  5
1A28
330
2
100
AcDbEntity
  8
0
 62
   255
100
AcDbLine
 10
1926.401795072629
 20
795.0173292997289
 30
0.0
 11
1924.902489276063
 21
797.6142031154654
 31
0.0
  0
ARC
  5
1A29
330
2
100
AcDbEntity
  8
0
 62
   255
100
AcDbCircle
 10
1923.638813975984
 20
802.8029529394709
 30
0.0
 40
8.5
100
AcDbArc
 50
251.8189199098455
 51
288.1810800901612
  0
ARC
  5
1A2A
330
2
100
AcDbEntity
  8
0
 62
   255
100
AcDbCircle
 10
1921.049037960096
 20
794.9173292997291
 30
0.0
 40
0.2
100
AcDbArc
 50
150.0000000000846
 51
251.818919909832
  0
ARC
  5
1A2B
330
2
100
AcDbEntity
  8
0
 62
   255
100
AcDbCircle
 10
1926.228589991873
 20
794.9173292997291
 30
0.0
 40
0.2
100
AcDbArc
 50
288.1810800901871
 51
30.00000000000095
  0
ARC
  5
1A2C
330
2
100
AcDbEntity
  8
0
 62
   255
100
AcDbCircle
 10
1923.638813975984
 20
802.8029529394709
 30
0.0
 40
5.2
100
AcDbArc
 50
258.3496346987587
 51
281.650365301248
  0
ARC
  5
1A2D
330
2
100
AcDbEntity
  8
0
 62
   255
100
AcDbCircle
 10
1922.548343756663
 20
797.5142031154653
 30
0.0
 40
0.2
100
AcDbArc
 50
78.34963469875201
 51
150.0000000000281
  0
ARC
  5
1A2E
330
2
100
AcDbEntity
  8
0
 62
   255
100
AcDbCircle
 10
1924.729284195306
 20
797.5142031154653
 30
0.0
 40
0.2
100
AcDbArc
 50
30.00000000000095
 51
101.6503653012745
  0
LINE
  5
1A2F
330
2
100
AcDbEntity
  8
0
 62
   255
100
AcDbLine
 10
1920.875832879339
 20
795.0173292997288
 30
0.0
 11
1922.375138675906
 21
797.6142031154652
 31
0.0
  0
LINE
  5
1A30
330
2
100
AcDbEntity
  8
0
 62
   255
100
AcDbLine
 10
1931.762852380628
 20
801.302952939471
 30
0.0
 11
1928.764240787494
 21
801.3029529394712
 31
0.0
  0
ARC
  5
1A31
330
2
100
AcDbEntity
  8
0
 62
   255
100
AcDbCircle
 10
1923.638813975984
 20
802.8029529394709
 30
0.0
 40
8.5
100
AcDbArc
 50
311.8189199098466
 51
348.181080090159
  0
ARC
  5
1A32
330
2
100
AcDbEntity
  8
0
 62
   255
100
AcDbCircle
 10
1929.17307636474
 20
796.6173292997289
 30
0.0
 40
0.2
100
AcDbArc
 50
210.0000000000766
 51
311.8189199098333
  0
ARC
  5
1A33
330
2
100
AcDbEntity
  8
0
 62
   255
100
AcDbCircle
 10
1931.762852380628
 20
801.1029529394711
 30
0.0
 40
0.2
100
AcDbArc
 50
348.1810800901797
 51
90.0
  0
ARC
  5
1A34
330
2
100
AcDbEntity
  8
0
 62
   255
100
AcDbCircle
 10
1923.638813975984
 20
802.8029529394709
 30
0.0
 40
5.2
100
AcDbArc
 50
318.3496346987555
 51
341.6503653012407
  0
ARC
  5
1A35
330
2
100
AcDbEntity
  8
0
 62
   255
100
AcDbCircle
 10
1927.673770568173
 20
799.2142031154656
 30
0.0
 40
0.2
100
AcDbArc
 50
138.3496346987471
 51
210.0000000000242
  0
ARC
  5
1A36
330
2
100
AcDbEntity
  8
0
 62
   255
100
AcDbCircle
 10
1928.764240787494
 20
801.102952939471
 30
0.0
 40
0.2
100
AcDbArc
 50
90.0
 51
161.6503653012819
  0
LINE
  5
1A37
330
2
100
AcDbEntity
  8
0
 62
   255
100
AcDbLine
 10
1928.999871283983
 20
796.5173292997287
 30
0.0
 11
1927.500565487416
 21
799.1142031154654
 31
0.0
  0
LINE
  5
1A38
330
2
100
AcDbEntity
  8
0
  6
CENTER
 62
     2
100
AcDbLine
 10
1917.773613271274
 20
812.9617785566164
 30
0.0
 11
1929.504014680693
 21
792.6441273223249
 31
0.0
  0
LINE
  5
1A39
330
2
100
AcDbEntity
  8
0
 62
   255
100
AcDbLine
 10
1928.999871283982
 20
809.088576579213
 30
0.0
 11
1927.500565487415
 21
806.4917027634766
 31
0.0
  0
ARC
  5
1A3A
330
2
100
AcDbEntity
  8
0
 62
   255
100
AcDbCircle
 10
1923.638813975983
 20
802.8029529394707
 30
0.0
 40
8.499999999999998
100
AcDbArc
 50
11.81891990984738
 51
48.18108009015777
  0
ARC
  5
1A3B
330
2
100
AcDbEntity
  8
0
 62
   255
100
AcDbCircle
 10
1931.762852380628
 20
804.5029529394712
 30
0.0
 40
0.2
100
AcDbArc
 50
270.0000000000912
 51
11.81891990983449
  0
ARC
  5
1A3C
330
2
100
AcDbEntity
  8
0
 62
   255
100
AcDbCircle
 10
1929.173076364739
 20
808.988576579213
 30
0.0
 40
0.2
100
AcDbArc
 50
48.18108009019039
 51
149.999999999999
  0
ARC
  5
1A3D
330
2
100
AcDbEntity
  8
0
 62
   255
100
AcDbCircle
 10
1923.638813975983
 20
802.8029529394707
 30
0.0
 40
5.199999999999999
100
AcDbArc
 50
18.3496346987593
 51
41.65036530125291
  0
ARC
  5
1A3E
330
2
100
AcDbEntity
  8
0
 62
   255
100
AcDbCircle
 10
1928.764240787493
 20
804.5029529394712
 30
0.0
 40
0.2
100
AcDbArc
 50
198.3496346987508
 51
270.0000000000326
  0
ARC
  5
1A3F
330
2
100
AcDbEntity
  8
0
 62
   255
100
AcDbCircle
 10
1927.673770568172
 20
806.3917027634769
 30
0.0
 40
0.2
100
AcDbArc
 50
149.999999999999
 51
221.6503653012718
  0
LINE
  5
1A40
330
2
100
AcDbEntity
  8
0
 62
   255
100
AcDbLine
 10
1931.762852380628
 20
804.302952939471
 30
0.0
 11
1928.764240787494
 21
804.3029529394713
 31
0.0
  0
LINE
  5
1A41
330
2
100
AcDbEntity
  8
0
 62
   255
100
AcDbLine
 10
1920.875832879339
 20
810.5885765792129
 30
0.0
 11
1922.375138675905
 21
807.9917027634762
 31
0.0
  0
ARC
  5
1A42
330
2
100
AcDbEntity
  8
0
 62
   255
100
AcDbCircle
 10
1923.638813975984
 20
802.8029529394707
 30
0.0
 40
8.5
100
AcDbArc
 50
71.8189199098593
 51
108.1810800901665
  0
ARC
  5
1A43
330
2
100
AcDbEntity
  8
0
 62
   255
100
AcDbCircle
 10
1926.228589991872
 20
810.6885765792128
 30
0.0
 40
0.2
100
AcDbArc
 50
330.0000000000897
 51
71.81891990983022
  0
ARC
  5
1A44
330
2
100
AcDbEntity
  8
0
 62
   255
100
AcDbCircle
 10
1921.049037960095
 20
810.6885765792128
 30
0.0
 40
0.2
100
AcDbArc
 50
108.1810800901956
 51
210.000000000001
  0
ARC
  5
1A45
330
2
100
AcDbEntity
  8
0
 62
   255
100
AcDbCircle
 10
1923.638813975984
 20
802.8029529394707
 30
0.0
 40
5.2
100
AcDbArc
 50
78.34963469875865
 51
101.6503653012546
  0
ARC
  5
1A46
330
2
100
AcDbEntity
  8
0
 62
   255
100
AcDbCircle
 10
1924.729284195305
 20
808.0917027634766
 30
0.0
 40
0.2
100
AcDbArc
 50
258.3496346987586
 51
330.0000000000282
  0
ARC
  5
1A47
330
2
100
AcDbEntity
  8
0
 62
   255
100
AcDbCircle
 10
1922.548343756662
 20
808.0917027634766
 30
0.0
 40
0.2
100
AcDbArc
 50
210.000000000001
 51
281.6503653012812
  0
LINE
  5
1A48
330
2
100
AcDbEntity
  8
0
 62
   255
100
AcDbLine
 10
1926.401795072629
 20
810.5885765792129
 30
0.0
 11
1924.902489276062
 21
807.9917027634767
 31
0.0
  0
LINE
  5
1A49
330
2
100
AcDbEntity
  8
0
  6
CENTER
 62
     2
100
AcDbLine
 10
1917.773613271274
 20
792.6441273223248
 30
0.0
 11
1929.504014680693
 21
812.9617785566168
 31
0.0
  0
LINE
  5
1A4A
330
2
100
AcDbEntity
  8
0
 62
   255
100
AcDbLine
 10
1915.51477557134
 20
804.3029529394708
 30
0.0
 11
1918.513387164473
 21
804.3029529394704
 31
0.0
  0
ARC
  5
1A4B
330
2
100
AcDbEntity
  8
0
 62
   255
100
AcDbCircle
 10
1923.638813975984
 20
802.8029529394709
 30
0.0
 40
8.5
100
AcDbArc
 50
131.8189199098422
 51
168.1810800901526
  0
ARC
  5
1A4C
330
2
100
AcDbEntity
  8
0
 62
   255
100
AcDbCircle
 10
1918.104551587228
 20
808.9885765792125
 30
0.0
 40
0.2
100
AcDbArc
 50
30.00000000007664
 51
131.8189199098332
  0
ARC
  5
1A4D
330
2
100
AcDbEntity
  8
0
 62
   255
100
AcDbCircle
 10
1915.51477557134
 20
804.5029529394707
 30
0.0
 40
0.2
100
AcDbArc
 50
168.1810800901796
 51
270.0
  0
ARC
  5
1A4E
330
2
100
AcDbEntity
  8
0
 62
   255
100
AcDbCircle
 10
1923.638813975984
 20
802.8029529394709
 30
0.0
 40
5.2
100
AcDbArc
 50
138.3496346987554
 51
161.6503653012552
  0
ARC
  5
1A4F
330
2
100
AcDbEntity
  8
0
 62
   255
100
AcDbCircle
 10
1919.603857383794
 20
806.3917027634763
 30
0.0
 40
0.2
100
AcDbArc
 50
318.3496346987471
 51
30.00000000002422
  0
ARC
  5
1A50
330
2
100
AcDbEntity
  8
0
 62
   255
100
AcDbCircle
 10
1918.513387164473
 20
804.5029529394707
 30
0.0
 40
0.2
100
AcDbArc
 50
270.0
 51
341.6503653012758
  0
LINE
  5
1A51
330
2
100
AcDbEntity
  8
0
 62
   255
100
AcDbLine
 10
1918.277756667985
 20
809.088576579213
 30
0.0
 11
1919.777062464552
 21
806.4917027634763
 31
0.0
  0
LINE
  5
1A52
330
2
100
AcDbEntity
  8
0
 62
   255
100
AcDbLine
 10
1918.277756667985
 20
796.5173292997286
 30
0.0
 11
1919.777062464553
 21
799.114203115465
 31
0.0
  0
ARC
  5
1A53
330
2
100
AcDbEntity
  8
0
 62
   255
100
AcDbCircle
 10
1923.638813975984
 20
802.8029529394709
 30
0.0
 40
8.5
100
AcDbArc
 50
191.8189199098534
 51
228.1810800901624
  0
ARC
  5
1A54
330
2
100
AcDbEntity
  8
0
 62
   255
100
AcDbCircle
 10
1915.51477557134
 20
801.1029529394702
 30
0.0
 40
0.2
100
AcDbArc
 50
90.00000000008467
 51
191.8189199098409
  0
ARC
  5
1A55
330
2
100
AcDbEntity
  8
0
 62
   255
100
AcDbCircle
 10
1918.104551587228
 20
796.6173292997287
 30
0.0
 40
0.2
100
AcDbArc
 50
228.1810800901904
 51
329.9999999999991
  0
ARC
  5
1A56
330
2
100
AcDbEntity
  8
0
 62
   255
100
AcDbCircle
 10
1923.638813975984
 20
802.8029529394709
 30
0.0
 40
5.2
100
AcDbArc
 50
198.3496346987653
 51
221.650365301248
  0
ARC
  5
1A57
330
2
100
AcDbEntity
  8
0
 62
   255
100
AcDbCircle
 10
1918.513387164474
 20
801.1029529394704
 30
0.0
 40
0.2
100
AcDbArc
 50
18.34963469875269
 51
90.00000000003257
  0
ARC
  5
1A58
330
2
100
AcDbEntity
  8
0
 62
   255
100
AcDbCircle
 10
1919.603857383795
 20
799.2142031154648
 30
0.0
 40
0.2
100
AcDbArc
 50
329.9999999999991
 51
41.65036530127184
  0
LINE
  5
1A59
330
2
100
AcDbEntity
  8
0
 62
   255
100
AcDbLine
 10
1915.51477557134
 20
801.302952939471
 30
0.0
 11
1918.513387164474
 21
801.3029529394705
 31
0.0
  0
ARC
  5
1A5A
330
2
100
AcDbEntity
  8
0
  6
CENTER
 62
     2
 48
0.5
100
AcDbCircle
 10
1923.638813975984
 20
802.8029529394709
 30
0.0
 40
8.5
100
AcDbArc
 50
110.5198509919864
 51
129.4801490080118
  0
ARC
  5
1A5B
330
2
100
AcDbEntity
  8
0
 62
     2
100
AcDbCircle
 10
1919.388813975984
 20
810.1641688716387
 30
0.0
 40
1.0
100
AcDbArc
 50
93.27851912873532
 51
41.5913879310566
  0
CIRCLE
  5
1A5C
330
2
100
AcDbEntity
  8
0
100
AcDbCircle
 10
1919.388813975984
 20
810.1641688716387
 30
0.0
 40
0.85
  0
CIRCLE
  5
1A5D
330
2
100
AcDbEntity
  8
0
 62
   255
100
AcDbCircle
 10
1919.388813975984
 20
810.1641688716387
 30
0.0
 40
1.199999999999999
  0
CIRCLE
  5
1A5E
330
2
100
AcDbEntity
  8
0
 62
   255
100
AcDbCircle
 10
1923.638813975984
 20
802.8029529394709
 30
0.0
 40
5.000000000000113
  0
CIRCLE
  5
1A5F
330
2
100
AcDbEntity
  8
0
 62
   255
100
AcDbCircle
 10
1923.638813975984
 20
802.8029529394709
 30
0.0
 40
4.5
  0
CIRCLE
  5
1A60
330
2
100
AcDbEntity
  8
0
100
AcDbCircle
 10
1923.638813975984
 20
802.8029529394709
 30
0.0
 40
0.75
  0
ARC
  5
1A61
330
2
100
AcDbEntity
  8
0
  6
CENTER
 62
     2
 48
0.5
100
AcDbCircle
 10
1923.638813975984
 20
802.8029529394709
 30
0.0
 40
8.5
100
AcDbArc
 50
170.5198509919826
 51
189.4801490080043
  0
ARC
  5
1A62
330
2
100
AcDbEntity
  8
0
 62
     2
100
AcDbCircle
 10
1915.138813975984
 20
802.8029529394709
 30
0.0
 40
1.0
100
AcDbArc
 50
153.2785191287366
 51
101.5913879310512
  0
CIRCLE
  5
1A63
330
2
100
AcDbEntity
  8
0
100
AcDbCircle
 10
1915.138813975984
 20
802.8029529394709
 30
0.0
 40
0.85
  0
CIRCLE
  5
1A64
330
2
100
AcDbEntity
  8
0
 62
   255
100
AcDbCircle
 10
1915.138813975984
 20
802.8029529394709
 30
0.0
 40
1.199999999999999
  0
ARC
  5
1A65
330
2
100
AcDbEntity
  8
0
  6
CENTER
 62
     2
 48
0.5
100
AcDbCircle
 10
1923.638813975983
 20
802.8029529394707
 30
0.0
 40
8.499999999999998
100
AcDbArc
 50
230.5198509919794
 51
249.4801490080136
  0
ARC
  5
1A66
330
2
100
AcDbEntity
  8
0
 62
     2
100
AcDbCircle
 10
1919.388813975983
 20
795.4417370073031
 30
0.0
 40
0.9999999999999998
100
AcDbArc
 50
213.2785191287335
 51
161.5913879310533
  0
CIRCLE
  5
1A67
330
2
100
AcDbEntity
  8
0
100
AcDbCircle
 10
1919.388813975983
 20
795.4417370073031
 30
0.0
 40
0.8499999999999998
  0
CIRCLE
  5
1A68
330
2
100
AcDbEntity
  8
0
 62
   255
100
AcDbCircle
 10
1919.388813975983
 20
795.4417370073031
 30
0.0
 40
1.199999999999999
  0
ARC
  5
1A69
330
2
100
AcDbEntity
  8
0
  6
CENTER
 62
     2
 48
0.5
100
AcDbCircle
 10
1923.638813975984
 20
802.8029529394707
 30
0.0
 40
8.5
100
AcDbArc
 50
290.5198509919932
 51
309.4801490080018
  0
ARC
  5
1A6A
330
2
100
AcDbEntity
  8
0
 62
     2
100
AcDbCircle
 10
1927.888813975984
 20
795.4417370073031
 30
0.0
 40
1.0
100
AcDbArc
 50
273.2785191287354
 51
221.5913879310566
  0
CIRCLE
  5
1A6B
330
2
100
AcDbEntity
  8
0
100
AcDbCircle
 10
1927.888813975984
 20
795.4417370073031
 30
0.0
 40
0.85
  0
CIRCLE
  5
1A6C
330
2
100
AcDbEntity
  8
0
 62
   255
100
AcDbCircle
 10
1927.888813975984
 20
795.4417370073031
 30
0.0
 40
1.199999999999999
  0
ARC
  5
1A6D
330
2
100
AcDbEntity
  8
0
  6
CENTER
 62
     2
 48
0.5
100
AcDbCircle
 10
1923.638813975984
 20
802.8029529394709
 30
0.0
 40
8.5
100
AcDbArc
 50
350.5198509919764
 51
9.480149008004316
  0
ARC
  5
1A6E
330
2
100
AcDbEntity
  8
0
 62
     2
100
AcDbCircle
 10
1932.138813975984
 20
802.8029529394707
 30
0.0
 40
1.0
100
AcDbArc
 50
333.2785191287304
 51
281.5913879310512
  0
CIRCLE
  5
1A6F
330
2
100
AcDbEntity
  8
0
100
AcDbCircle
 10
1932.138813975984
 20
802.8029529394707
 30
0.0
 40
0.85
  0
CIRCLE
  5
1A70
330
2
100
AcDbEntity
  8
0
 62
   255
100
AcDbCircle
 10
1932.138813975984
 20
802.8029529394707
 30
0.0
 40
1.199999999999999
  0
ARC
  5
1A71
330
2
100
AcDbEntity
  8
0
  6
CENTER
 62
     2
 48
0.5
100
AcDbCircle
 10
1923.638813975984
 20
802.8029529394709
 30
0.0
 40
8.5
100
AcDbArc
 50
50.51985099199395
 51
69.4801490080136
  0
ARC
  5
1A72
330
2
100
AcDbEntity
  8
0
 62
     2
100
AcDbCircle
 10
1927.888813975984
 20
810.1641688716384
 30
0.0
 40
1.0
100
AcDbArc
 50
33.2785191287425
 51
341.5913879310594
  0
CIRCLE
  5
1A73
330
2
100
AcDbEntity
  8
0
100
AcDbCircle
 10
1927.888813975984
 20
810.1641688716384
 30
0.0
 40
0.85
  0
CIRCLE
  5
1A74
330
2
100
AcDbEntity
  8
0
 62
   255
100
AcDbCircle
 10
1927.888813975984
 20
810.1641688716384
 30
0.0
 40
1.199999999999999
  0
DIMENSION
  5
1A75
330
2
100
AcDbEntity
  8
0
100
AcDbDimension
  2
*D18
 10
1911.538813975984
 20
802.8029529394709
 30
0.0
 11
1911.981000672744
 21
796.0723112906828
 31
0.0
 70
    34
  1
6x60%%D
 71
     5
 42
1.047197551196624
 73
     0
 74
     0
 75
     0
  3
DMST_1
100
AcDb2LineAngularDimension
 13
1917.773613271274
 23
792.6441273223248
 33
0.0
 14
1929.504014680693
 24
812.9617785566168
 34
0.0
 15
1935.738813975984
 25
802.8029529394709
 35
0.0
 16
1909.955683512079
 26
797.8227007390284
 36
0.0
1001
ACAD
1000
DSTYLE
1002
{
1070
    40
1040
2.0
1002
}
  0
LINE
  5
1A76
330
2
100
AcDbEntity
  8
0
 62
     2
100
AcDbLine
 10
1915.138813975984
 20
802.8029529394718
 30
0.0
 11
1915.138813975984
 21
822.4387033355395
 31
0.0
  0
LINE
  5
1A77
330
2
100
AcDbEntity
  8
0
 62
     2
100
AcDbLine
 10
1916.538813975984
 20
822.0387033355395
 30
0.0
 11
1926.294796975586
 21
822.0387033355395
 31
0.0
  0
SOLID
  5
1A78
330
2
100
AcDbEntity
  8
0
 62
     2
100
AcDbTrace
 10
1916.538813975984
 20
822.2720366688729
 30
0.0
 11
1916.538813975984
 21
821.8053700022062
 31
0.0
 12
1915.138813975984
 22
822.0387033355395
 32
0.0
 13
1915.138813975984
 23
822.0387033355395
 33
0.0
  0
MTEXT
  5
1A79
330
2
100
AcDbEntity
  8
0
 62
     3
100
AcDbMText
 10
1922.907140342682
 20
823.1387033355396
 30
0.0
 40
1.4
 41
0.0
 46
0.0
 71
     5
 72
     1
  1
\A1;%%C17{\H0.57143x;%%P0.05}
 73
     1
 44
1.0
  0
LINE
  5
1A7A
330
2
100
AcDbEntity
  8
0
 62
     2
100
AcDbLine
 10
1926.888813975984
 20
810.1641688716384
 30
0.0
 11
1926.888813975984
 21
818.3504308131041
 31
0.0
  0
LINE
  5
1A7B
330
2
100
AcDbEntity
  8
0
 62
     2
100
AcDbLine
 10
1928.888813975984
 20
810.1641688716384
 30
0.0
 11
1928.888813975984
 21
818.3504308131041
 31
0.0
  0
LINE
  5
1A7C
330
2
100
AcDbEntity
  8
0
 62
     2
100
AcDbLine
 10
1924.088813975984
 20
817.9504308131042
 30
0.0
 11
1941.684462868931
 21
817.9504308131042
 31
0.0
  0
MTEXT
  5
1A7D
330
2
100
AcDbEntity
  8
0
 62
     3
100
AcDbMText
 10
1936.286464318906
 20
819.2837067312392
 30
0.0
 40
1.4
 41
0.0
 46
0.0
 71
     5
 72
     1
  1
\A1;M2x3 max.
 73
     1
 44
1.0
  0
SOLID
  5
1A7E
330
2
100
AcDbEntity
  8
0
 62
     2
100
AcDbTrace
 10
1925.488813975984
 20
818.1837641464374
 30
0.0
 11
1925.488813975984
 21
817.7170974797707
 31
0.0
 12
1926.888813975984
 22
817.9504308131042
 32
0.0
 13
1926.888813975984
 23
817.9504308131042
 33
0.0
  0
SOLID
  5
1A7F
330
2
100
AcDbEntity
  8
0
 62
     2
100
AcDbTrace
 10
1930.288813975985
 20
818.1837641464374
 30
0.0
 11
1930.288813975985
 21
817.7170974797707
 31
0.0
 12
1928.888813975984
 22
817.9504308131042
 32
0.0
 13
1928.888813975984
 23
817.9504308131042
 33
0.0
  0
INSERT
  5
1A80
102
{ACAD_XDICTIONARY
360
1A81
102
}
330
2
100
AcDbEntity
  8
0
100
AcDbBlockReference
  2
A$C324D28BD
 10
2058.501971350473
 20
802.8029529394711
 30
0.0
  0
ARC
  5
1A82
330
2
100
AcDbEntity
  8
1
 62
   255
100
AcDbCircle
 10
2058.501972830841
 20
814.402952939471
 30
0.0
 40
1.050000000000034
100
AcDbArc
 50
223.7735774259714
 51
316.2264079500964
  0
ARC
  5
1A83
330
2
100
AcDbEntity
  8
1
 62
   255
100
AcDbCircle
 10
2048.456077406758
 20
808.602954221507
 30
0.0
 40
1.050000000000084
100
AcDbArc
 50
283.7735774259768
 51
16.22640795009362
  0
ARC
  5
1A84
330
2
100
AcDbEntity
  8
1
 62
   255
100
AcDbCircle
 10
2048.45607592639
 20
797.0029542215071
 30
0.0
 40
1.05000000000002
100
AcDbArc
 50
343.773577425964
 51
76.22640795010562
  0
ARC
  5
1A85
330
2
100
AcDbEntity
  8
1
 62
   255
100
AcDbCircle
 10
2058.501969870107
 20
791.2029529394711
 30
0.0
 40
1.050000000000039
100
AcDbArc
 50
43.77357742597144
 51
136.2264079500916
  0
ARC
  5
1A86
330
2
100
AcDbEntity
  8
1
 62
   255
100
AcDbCircle
 10
2068.547865294189
 20
797.0029516574351
 30
0.0
 40
1.050000000000077
100
AcDbArc
 50
103.7735774259768
 51
196.2264079500936
  0
ARC
  5
1A87
330
2
100
AcDbEntity
  8
1
 62
   255
100
AcDbCircle
 10
2068.547866774557
 20
808.6029516574351
 30
0.0
 40
1.050000000000125
100
AcDbArc
 50
163.773577425964
 51
256.2264079500805
  0
CIRCLE
  5
1A88
330
2
100
AcDbEntity
  8
0
 62
   255
100
AcDbCircle
 10
2058.501971350473
 20
802.8029529394711
 30
0.0
 40
10.45
  0
CIRCLE
  5
1A89
330
2
100
AcDbEntity
  8
0
 62
   255
100
AcDbCircle
 10
2058.501971350473
 20
802.8029529394711
 30
0.0
 40
11.0
  0
CIRCLE
  5
1A8A
330
2
100
AcDbEntity
  8
0
 62
   255
100
AcDbCircle
 10
2058.501971350473
 20
802.8029529394711
 30
0.0
 40
10.9
  0
LINE
  5
1A8B
330
2
100
AcDbEntity
  8
0
  6
CENTER
 62
     2
100
AcDbLine
 10
2070.601971350473
 20
802.8029529394711
 30
0.0
 11
2046.401971350474
 21
802.8029529394711
 31
0.0
  0
LINE
  5
1A8C
330
2
100
AcDbEntity
  8
0
  6
CENTER
 62
     2
100
AcDbLine
 10
2058.501971350473
 20
790.7029529394711
 30
0.0
 11
2058.501971350473
 21
814.9029529394711
 31
0.0
  0
DIMENSION
  5
1A8D
330
2
100
AcDbEntity
  8
0
100
AcDbDimension
  2
*D19
 10
2044.444298218528
 20
797.8029529394711
 30
0.0
 11
2043.344298218528
 21
802.8029529394714
 31
0.0
 70
    32
 71
     5
 42
10.0
 73
     0
 74
     0
 75
     0
  3
DMST_1
100
AcDbAlignedDimension
 13
2057.276971350474
 23
807.802952939471
 33
0.0
 14
2057.276971350474
 24
797.8029529394711
 34
0.0
 50
90.0
100
AcDbRotatedDimension
1001
ACAD
1000
DSTYLE
1002
{
1070
    40
1040
2.0
1002
}
  0
DIMENSION
  5
1A8E
330
2
100
AcDbEntity
  8
0
100
AcDbDimension
  2
*D20
 10
2057.476971350473
 20
816.3809691928518
 30
0.0
 11
2058.501971350473
 21
817.4809691928519
 31
0.0
 70
    32
  1
2
 71
     5
 42
2.049999999999727
 73
     0
 74
     0
 75
     0
  3
DMST_1
100
AcDbAlignedDimension
 13
2059.526971350473
 23
808.1029529394712
 33
0.0
 14
2057.476971350473
 24
808.1029529394712
 34
0.0
100
AcDbRotatedDimension
1001
ACAD
1000
DSTYLE
1002
{
1070
    40
1040
2.0
1002
}
  0
LINE
  5
1A8F
330
2
100
AcDbEntity
  8
0
 62
     2
100
AcDbLine
 10
2057.476971350473
 20
816.3809691928518
 30
0.0
 11
2059.526971350473
 21
816.3809691928518
 31
0.0
  0
LINE
  5
1BD0
330
2
100
AcDbEntity
  8
0
  6
CENTER
 62
     2
100
AcDbLine
 10
2012.431185401005
 20
802.8029529394711
 30
0.0
 11
1969.467750907639
 21
802.8029529394711
 31
0.0
1001
AcDbBlockRepETag
1070
     1
1071
     4869
1005
0
  0
LINE
  5
200E
330
2
100
AcDbEntity
  8
0
  6
Continuous
 62
   255
100
AcDbLine
 10
2087.10131300069
 20
708.9286237402072
 30
0.0
 11
2087.10131300069
 21
847.4286237402072
 31
0.0
  0
LINE
  5
200F
330
2
100
AcDbEntity
  8
0
  6
Continuous
 62
   255
100
AcDbLine
 10
2077.922962962867
 20
708.9286237402072
 30
0.0
 11
2077.922962962867
 21
710.9286231937593
 31
0.0
  0
LINE
  5
2010
330
2
100
AcDbEntity
  8
0
  6
Continuous
 62
   255
100
AcDbLine
 10
2081.10131300069
 20
710.9286231937593
 30
0.0
 11
2081.10131300069
 21
715.4286231937592
 31
0.0
  0
LINE
  5
2011
330
2
100
AcDbEntity
  8
0
  6
Continuous
 62
   255
100
AcDbLine
 10
1890.601329795889
 20
708.9286237402071
 30
0.0
 11
2087.10131300069
 21
708.9286237402072
 31
0.0
  0
LINE
  5
2012
330
2
100
AcDbEntity
  8
0
  6
Continuous
 62
   255
100
AcDbLine
 10
1890.601329795889
 20
847.4286237402072
 30
0.0
 11
1890.601329795889
 21
708.9286237402072
 31
0.0
  0
LINE
  5
2013
330
2
100
AcDbEntity
  8
0
  6
Continuous
 62
   255
100
AcDbLine
 10
1890.601329795889
 20
847.4286237402072
 30
0.0
 11
2087.10131300069
 21
847.4286237402072
 31
0.0
  0
LINE
  5
201A
330
2
100
AcDbEntity
  8
0
  6
CENTER
 62
     2
 48
0.2
370
     9
100
AcDbLine
 10
2084.370778636492
 20
717.2005697120737
 30
0.0
 11
2084.370778636492
 21
720.7005687557898
 31
0.0
1001
AcDbBlockRepETag
1070
     1
1071
        1
1005
0
  0
LINE
  5
201B
330
2
100
AcDbEntity
  8
0
  6
CENTER
 62
     2
 48
0.2
370
     9
100
AcDbLine
 10
2077.19187033468
 20
718.9505692339317
 30
0.0
 11
2081.691869105172
 21
718.9505692339317
 31
0.0
1001
AcDbBlockRepETag
1070
     1
1071
        9
1005
0
  0
LINE
  5
201C
330
2
100
AcDbEntity
  8
0
  6
Continuous
 62
   255
100
AcDbLine
 10
2081.441869173478
 20
720.5005688104346
 30
0.0
 11
2077.441870266374
 21
719.7005690290138
 31
0.0
1001
AcDbBlockRepETag
1070
     1
1071
       10
1005
0
  0
LINE
  5
201D
330
2
100
AcDbEntity
  8
0
  6
Continuous
 62
   255
100
AcDbLine
 10
2081.441869173478
 20
717.4005696574288
 30
0.0
 11
2081.441869173478
 21
720.5005688104346
 31
0.0
1001
AcDbBlockRepETag
1070
     1
1071
       11
1005
0
  0
LINE
  5
201E
330
2
100
AcDbEntity
  8
0
  6
Continuous
 62
   255
100
AcDbLine
 10
2077.441870266374
 20
718.2005694388497
 30
0.0
 11
2081.441869173478
 21
717.4005696574288
 31
0.0
1001
AcDbBlockRepETag
1070
     1
1071
       12
1005
0
  0
LINE
  5
201F
330
2
100
AcDbEntity
  8
0
  6
Continuous
 62
   255
100
AcDbLine
 10
2077.441870266374
 20
719.7005690290138
 30
0.0
 11
2077.441870266374
 21
718.2005694388497
 31
0.0
1001
AcDbBlockRepETag
1070
     1
1071
       13
1005
0
  0
LINE
  5
2020
330
2
100
AcDbEntity
  8
0
  6
Continuous
 62
   255
100
AcDbLine
 10
2055.601323109977
 20
719.9286231937593
 30
0.0
 11
2055.601323109977
 21
710.9286231937593
 31
0.0
1001
AcDbBlockRepETag
1070
     1
1071
       20
1005
0
  0
LINE
  5
2021
330
2
100
AcDbEntity
  8
0
  6
Continuous
 62
   255
100
AcDbLine
 10
2013.101333219263
 20
719.9286231937592
 30
0.0
 11
2013.101333219263
 21
710.9286231937593
 31
0.0
1001
AcDbBlockRepETag
1070
     1
1071
       22
1005
0
  0
LINE
  5
2022
330
2
100
AcDbEntity
  8
0
  6
Continuous
 62
   255
100
AcDbLine
 10
2018.148124560234
 20
722.4282207520555
 30
0.0
 11
2018.148124560235
 21
719.9286231937592
 31
0.0
1001
AcDbBlockRepETag
1070
     1
1071
       22
1005
0
  0
LINE
  5
2023
330
2
100
AcDbEntity
  8
0
  6
Continuous
 62
   255
100
AcDbLine
 10
2063.241697679337
 20
722.4282207520555
 30
0.0
 11
2063.241697679337
 21
719.9286231937592
 31
0.0
1001
AcDbBlockRepETag
1070
     1
1071
       22
1005
0
  0
LINE
  5
2024
330
2
100
AcDbEntity
  8
0
  6
Continuous
 62
   255
100
AcDbLine
 10
1995.601338000683
 20
722.4282207520555
 30
0.0
 11
1995.601338000683
 21
708.9286237402072
 31
0.0
1001
AcDbBlockRepETag
1070
     1
1071
       26
1005
0
  0
LINE
  5
202D
330
2
100
AcDbEntity
  8
0
  6
CENTER
 62
     2
 48
0.2
370
     9
100
AcDbLine
 10
2082.570779128295
 20
718.9505692339317
 30
0.0
 11
2086.12077815835
 21
718.9505692339317
 31
0.0
1001
AcDbBlockRepETag
1070
     1
1071
       37
1005
0
  0
LINE
  5
202E
330
2
100
AcDbEntity
  8
0
  6
Continuous
 62
   255
100
AcDbLine
 10
2087.10131300069
 20
710.9286231937593
 30
0.0
 11
1995.601338000683
 21
710.9286231937593
 31
0.0
1001
AcDbBlockRepETag
1070
     1
1071
       38
1005
0
  0
LINE
  5
202F
330
2
100
AcDbEntity
  8
0
  6
Continuous
 62
   255
100
AcDbLine
 10
2076.137127089636
 20
719.9286231937592
 30
0.0
 11
2063.241697679337
 21
719.9286231937592
 31
0.0
1001
AcDbBlockRepETag
1070
     1
1071
       38
1005
0
  0
LINE
  5
2030
330
2
100
AcDbEntity
  8
0
  6
Continuous
 62
   255
100
AcDbLine
 10
2063.241697679337
 20
719.9286231937592
 30
0.0
 11
1995.601338000683
 21
719.9286231937593
 31
0.0
1001
AcDbBlockRepETag
1070
     1
1071
       38
1005
0
  0
LINE
  5
2031
330
2
100
AcDbEntity
  8
0
  6
Continuous
 62
   255
100
AcDbLine
 10
2087.10131300069
 20
715.4286231937593
 30
0.0
 11
2055.601323109977
 21
715.4286231937592
 31
0.0
1001
AcDbBlockRepETag
1070
     1
1071
       38
1005
0
  0
CIRCLE
  5
2032
330
2
100
AcDbEntity
  8
0
  6
Continuous
 62
   255
100
AcDbCircle
 10
2084.370778636492
 20
718.9505692339317
 30
0.0
 40
1.549999576502847
1001
AcDbBlockRepETag
1070
     1
1071
       39
1005
0
  0
CIRCLE
  5
2033
330
2
100
AcDbEntity
  8
0
  6
Continuous
 62
   255
100
AcDbCircle
 10
2084.370778636492
 20
718.9505692339317
 30
0.0
 40
0.7499997950820232
1001
AcDbBlockRepETag
1070
     1
1071
       40
1005
0
  0
MTEXT
  5
2034
330
2
100
AcDbEntity
  8
0
 62
   255
100
AcDbMText
 10
2060.614288695548
 20
718.3805420814451
 30
0.0
 40
1.5
 41
0.0
 46
0.0
 71
     1
 72
     5
  1
Scale: 2:1
 73
     1
 44
1.0
1001
AcDbBlockRepETag
1070
     1
1071
       46
1005
0
  0
MTEXT
  5
2035
330
2
100
AcDbEntity
  8
0
 62
   255
100
AcDbMText
 10
2082.358047188668
 20
714.3398133585032
 30
0.0
 40
2.25
 41
0.0
 46
0.0
 71
     1
 72
     5
  1
{\fISOCPEUR|b0|i0|c0|p34;\W1;A3}
  7
SLDTEXTSTYLE0
 73
     1
 44
1.0
1001
AcDbBlockRepETag
1070
     1
1071
       50
1005
0
  0
TEXT
  5
2036
330
2
100
AcDbEntity
  8
0
  6
Continuous
 62
   255
100
AcDbText
 10
1997.369724194631
 20
709.6283102637407
 30
0.0
 40
0.8619565217391304
  1
This drawing remains our property. Without written approval it may not be copied, reproduced, communicated or made available to third parties.
100
AcDbText
1001
AcDbBlockRepETag
1070
     1
1071
       51
1005
0
  0
MTEXT
  5
203C
330
2
100
AcDbEntity
  8
0
 62
   255
100
AcDbMText
 10
2061.087881912555
 20
714.3124888525723
 30
0.0
 40
2.25
 41
0.0
 46
0.0
 71
     1
 72
     5
  1
{\fISOCPEUR|b0|i0|c0|p34;\W1;\T0.9;\C256;1.011.22N.S25}
  7
SLDTEXTSTYLE0
 73
     1
 44
1.0
1001
AcDbBlockRepETag
1070
     1
1071
       58
1005
0
  0
MTEXT
  5
203D
102
{ACAD_XDICTIONARY
360
20BA
102
}
330
2
100
AcDbEntity
  8
0
 62
   255
100
AcDbMText
 10
2034.592282929884
 20
718.5946077748417
 30
0.0
 40
2.25
 41
0.0
 46
0.0
 71
     1
 72
     5
  1
\pi-6.8625;{\fISOCPEUR|b0|i0|c0|p34;\W1;\C7;22N  .1001\C255;\P\pi-10.575;Outline drawing}
  7
SLDTEXTSTYLE0
 73
     1
 44
1.0
1001
AcDbBlockRepETag
1070
     1
1071
       59
1005
0
  0
MTEXT
  5
203E
330
2
100
AcDbEntity
  8
0
 62
     1
100
AcDbMText
 10
1996.804789056232
 20
717.7787810822531
 30
0.0
 40
2.5
 41
0.0
 46
0.0
 71
     1
 72
     5
  1
{\fISOCPEUR|b0|i0|c0|p34;\W1;Portescap}
  7
SLDTEXTSTYLE0
 73
     1
 44
1.0
1001
AcDbBlockRepETag
1070
     1
1071
       65
1005
0
  0
LINE
  5
2041
330
2
100
AcDbEntity
  8
0
  6
Continuous
 62
   255
100
AcDbLine
 10
2076.137127089636
 20
722.4282207520555
 30
0.0
 11
2076.137127089636
 21
715.4286231937592
 31
0.0
1001
AcDbBlockRepETag
1070
     1
1071
        5
1005
0
  0
TEXT
  5
2042
330
2
100
AcDbEntity
  8
0
  6
Continuous
 62
   255
100
AcDbText
 10
2079.179033224055
 20
709.6283102637407
 30
0.0
 40
0.8619565217391304
  1
Sheet 1 of 1
100
AcDbText
1001
AcDbBlockRepETag
1070
     1
1071
       51
1005
0
  0
LINE
  5
2044
330
2
100
AcDbEntity
  8
0
  6
Continuous
 62
   255
100
AcDbLine
 10
2013.101333219263
 20
712.9286226473113
 30
0.0
 11
1995.601338000683
 21
712.9286226473113
 31
0.0
1001
AcDbBlockRepETag
1070
     1
1071
       38
1005
0
  0
TEXT
  5
2045
330
2
100
AcDbEntity
  8
0
  6
Continuous
 62
   255
100
AcDbText
 10
1997.369724194631
 20
711.5331799503294
 30
0.0
 40
0.8619565217391304
  1
PI/R&D/F/18 Rev 00
100
AcDbText
1001
AcDbBlockRepETag
1070
     1
1071
       51
1005
0
  0
MTEXT
  5
2046
330
2
100
AcDbEntity
  8
0
  6
Continuous
 62
   255
100
AcDbMText
 10
1996.531059110736
 20
723.2287016996793
 30
0.0
 40
1.05
 41
61.26009703170726
 46
0.0
 71
     7
 72
     1
  1
Unless & otherwise specified, all dimensions and tolerances are in mm.
  7
style1
 73
     1
 44
1.0
1001
AcDbBlockRepETag
1070
     1
1071
       64
1005
0
  0
LINE
  5
2047
330
2
100
AcDbEntity
  8
0
  6
Continuous
 62
   255
100
AcDbLine
 10
1995.601338000683
 20
722.4282207520555
 30
0.0
 11
2087.10131300069
 21
722.4282207520555
 31
0.0
1001
AcDbBlockRepETag
1070
     1
1071
        3
1005
0
  0
MTEXT
  5
204A
330
2
100
AcDbEntity
  8
0
 62
   255
100
AcDbMText
 10
1996.479164702426
 20
721.8453426615781
 30
0.0
 40
1.25
 41
0.0
 46
0.0
 71
     1
 72
     5
  1
Drawn: 05.08.13 NB
 73
     1
 44
1.0
1001
AcDbBlockRepETag
1070
     1
1071
       46
1005
0
  0
MTEXT
  5
204B
330
2
100
AcDbEntity
  8
0
 62
   255
100
AcDbMText
 10
2019.288958894339
 20
721.8453426615804
 30
0.0
 40
1.25
 41
0.0
 46
0.0
 71
     1
 72
     5
  1
Checked:
 73
     1
 44
1.0
1001
AcDbBlockRepETag
1070
     1
1071
       46
1005
0
  0
MTEXT
  5
204C
330
2
100
AcDbEntity
  8
0
 62
   255
100
AcDbMText
 10
2042.163952644341
 20
721.8453426615804
 30
0.0
 40
1.25
 41
0.0
 46
0.0
 71
     1
 72
     5
  1
Approved:
 73
     1
 44
1.0
1001
AcDbBlockRepETag
1070
     1
1071
       46
1005
0
  0
MTEXT
  5
204D
330
2
100
AcDbEntity
  8
0
 62
   255
100
AcDbMText
 10
2064.054324822991
 20
721.8453426615824
 30
0.0
 40
1.25
 41
0.0
 46
0.0
 71
     1
 72
     5
  1
Revision No: 00
 73
     1
 44
1.0
1001
AcDbBlockRepETag
1070
     1
1071
       46
1005
0
  0
LINE
  5
204E
330
2
100
AcDbEntity
  8
0
  6
Continuous
 62
   255
100
AcDbLine
 10
2040.694911119786
 20
722.4282207520576
 30
0.0
 11
2040.694911119786
 21
719.9286231937612
 31
0.0
1001
AcDbBlockRepETag
1070
     1
1071
       22
1005
0
  0
ENDSEC
  0
SECTION
  2
OBJECTS
  0
DICTIONARY
  5
B
330
0
100
AcDbDictionary
281
     1
  3
ACAD_BACKGROUND
350
A80
  3
ACAD_COLOR
350
47
  3
ACAD_GROUP
350
34
  3
ACAD_LAYOUT
350
18
  3
ACAD_MATERIAL
350
D
  3
ACAD_MLEADERSTYLE
350
1E1
  3
ACAD_MLINESTYLE
350
35
  3
ACAD_PLOTSETTINGS
350
36
  3
ACAD_PLOTSTYLENAME
350
A
  3
ACAD_SCALELIST
350
48
  3
ACAD_TABLESTYLE
350
49
  3
ACAD_VISUALSTYLE
350
2B
  3
ACDB_RECOMPOSE_DATA
350
1BB
  3
AcDbVariableDictionary
350
1CA
  0
DICTIONARY
  5
2C
330
28
100
AcDbDictionary
280
     1
281
     1
  0
DICTIONARY
  5
1F77
330
1E
100
AcDbDictionary
280
     1
281
     1
  3
ACAD_LAYERSTATES
360
1F78
  0
DICTIONARY
  5
7
330
6
100
AcDbDictionary
280
     1
281
     1
  3
ADSK_XREC_LAYER_RECONCILED
360
8
  0
DICTIONARY
  5
DB
330
DA
100
AcDbDictionary
280
     1
281
     1
  3
ADSK_XREC_LAYER_RECONCILED
360
DC
  0
DICTIONARY
  5
3
330
2
100
AcDbDictionary
280
     1
281
     1
  3
ACAD_SORTENTS
360
1B5
  0
DICTIONARY
  5
1C6F
330
1254
100
AcDbDictionary
280
     1
281
     1
  0
DICTIONARY
  5
1779
330
1778
100
AcDbDictionary
280
     1
281
     1
  3
ACAD_ENHANCEDBLOCK
360
177A
  3
ACAD_SORTENTS
360
177B
  3
AcDbDynamicBlockRoundTripPurgePreventer
360
177C
  0
DICTIONARY
  5
17DA
330
17A6
100
AcDbDictionary
280
     1
281
     1
  3
ACAD_SORTENTS
360
17DB
  0
DICTIONARY
  5
1DB2
330
1DB1
100
AcDbDictionary
280
     1
281
     1
  3
ACAD_SORTENTS
360
1DB3
  0
DICTIONARY
  5
1DED
330
1DEC
100
AcDbDictionary
280
     1
281
     1
  3
ACAD_SORTENTS
360
1DEE
  0
DICTIONARY
  5
1E35
330
1E34
100
AcDbDictionary
280
     1
281
     1
  3
ACAD_SORTENTS
360
1E36
  0
DICTIONARY
  5
1E3C
330
1E3B
100
AcDbDictionary
280
     1
281
     1
  3
ACAD_SORTENTS
360
1E3D
  0
DICTIONARY
  5
1E52
330
1E51
100
AcDbDictionary
280
     1
281
     1
  3
ACAD_SORTENTS
360
1E53
  0
DICTIONARY
  5
1F38
330
1F37
100
AcDbDictionary
280
     1
281
     1
  3
ACAD_SORTENTS
360
1F39
  0
DICTIONARY
  5
1FBB
330
1F79
100
AcDbDictionary
280
     1
281
     1
  3
ACAD_SORTENTS
360
200C
  0
DICTIONARY
  5
20B8
330
1FF3
100
AcDbDictionary
280
     1
281
     1
  3
ACAD_MTEXT_2008_RT
360
20B9
  0
DICTIONARY
  5
1CA4
330
1A00
100
AcDbDictionary
280
     1
281
     1
  3
ACAD_BREAKDATA
360
1CAE
  0
DICTIONARY
  5
1D44
330
1A0B
100
AcDbDictionary
280
     1
281
     1
  3
ACAD_BREAKDATA
360
1D4F
  0
DICTIONARY
  5
1D12
330
1A0D
100
AcDbDictionary
280
     1
281
     1
  3
ACAD_BREAKDATA
360
1D1F
  0
DICTIONARY
  5
1A81
330
1A80
100
AcDbDictionary
280
     1
281
     1
  0
DICTIONARY
  5
20BA
330
203D
100
AcDbDictionary
280
     1
281
     1
  3
ACAD_MTEXT_2008_RT
360
20BB
  0
DICTIONARY
  5
A80
102
{ACAD_REACTORS
330
B
102
}
330
B
100
AcDbDictionary
281
     1
  0
DICTIONARY
  5
47
102
{ACAD_REACTORS
330
B
102
}
330
B
100
AcDbDictionary
281
     1
  0
DICTIONARY
  5
34
102
{ACAD_REACTORS
330
B
102
}
330
B
100
AcDbDictionary
281
     1
  0
DICTIONARY
  5
18
102
{ACAD_REACTORS
330
B
102
}
330
B
100
AcDbDictionary
281
     1
  3
Layout1
350
1D
  3
Model
350
17
  0
DICTIONARY
  5
D
102
{ACAD_REACTORS
330
B
102
}
330
B
100
AcDbDictionary
281
     1
  3
ByBlock
350
3F
  3
ByLayer
350
37
  3
Global
350
C
  0
DICTIONARY
  5
1E1
102
{ACAD_REACTORS
330
B
102
}
330
B
100
AcDbDictionary
281
     1
  3
Standard
350
1E2
  0
DICTIONARY
  5
35
102
{ACAD_REACTORS
330
B
102
}
330
B
100
AcDbDictionary
281
     1
  3
Standard
350
4A
  0
DICTIONARY
  5
36
102
{ACAD_REACTORS
330
B
102
}
330
B
100
AcDbDictionary
281
     1
  0
ACDBDICTIONARYWDFLT
  5
A
102
{ACAD_REACTORS
330
B
102
}
330
B
100
AcDbDictionary
281
     1
  3
Normal
350
9
100
AcDbDictionaryWithDefault
340
9
  0
DICTIONARY
  5
48
102
{ACAD_REACTORS
330
B
102
}
330
B
100
AcDbDictionary
281
     1
  3
A0
350
4F
  3
A1
350
50
  3
A2
350
51
  3
A3
350
52
  3
A4
350
53
  3
A5
350
54
  3
A6
350
55
  3
A7
350
56
  3
A8
350
57
  3
A9
350
58
  3
B0
350
59
  3
B1
350
5A
  3
B2
350
5B
  3
B3
350
5C
  3
B4
350
5D
  3
B5
350
5E
  3
B6
350
5F
  3
B7
350
60
  3
B8
350
61
  3
B9
350
62
  3
C0
350
63
  3
C1
350
64
  3
C2
350
65
  3
C3
350
66
  3
C4
350
67
  3
C5
350
68
  3
C6
350
69
  3
C7
350
6A
  3
C8
350
6B
  3
C9
350
6C
  3
D0
350
6D
  3
D1
350
6E
  3
D2
350
6F
  0
DICTIONARY
  5
49
102
{ACAD_REACTORS
330
B
102
}
330
B
100
AcDbDictionary
281
     1
  3
Standard
350
4B
  0
DICTIONARY
  5
2B
102
{ACAD_REACTORS
330
B
102
}
330
B
100
AcDbDictionary
281
     1
  3
2dWireframe
350
2A
  3
3D Hidden
350
1D9
  3
3dWireframe
350
4E
  3
Basic
350
1D8
  3
Brighten
350
1DC
  3
ColorChange
350
1E0
  3
Conceptual
350
1DA
  3
Dim
350
1DB
  3
EdgeColorOff
350
1F6E
  3
Facepattern
350
1DF
  3
Flat
350
1D4
  3
FlatWithEdges
350
1D5
  3
Gouraud
350
1D6
  3
GouraudWithEdges
350
1D7
  3
JitterOff
350
1F71
  3
Linepattern
350
1DE
  3
OverhangOff
350
1F74
  3
Realistic
350
4D
  3
Thicken
350
1DD
  0
XRECORD
  5
1BB
102
{ACAD_REACTORS
330
B
102
}
330
B
100
AcDbXrecord
280
     1
 90
        1
330
4B
330
1FF3
330
203D
  0
DICTIONARY
  5
1CA
102
{ACAD_REACTORS
330
B
102
}
330
B
100
AcDbDictionary
281
     1
  3
CANNOSCALE
350
1CE
  3
CMLEADERSTYLE
350
1CC
  3
CTABLESTYLE
350
1CB
  3
DIMASSOC
350
1D2
  3
HIDETEXT
350
1D1
  3
INDEXCTL
350
1D0
  3
LIGHTINGUNITS
350
2092
  3
MSLTSCALE
350
1CD
  3
SORTENTS
350
1CF
  0
DICTIONARY
  5
1F78
102
{ACAD_REACTORS
330
1F77
102
}
330
1F77
100
AcDbDictionary
281
     1
  0
XRECORD
  5
8
102
{ACAD_REACTORS
330
7
102
}
330
7
100
AcDbXrecord
280
     1
290
     1
  0
XRECORD
  5
DC
102
{ACAD_REACTORS
330
DB
102
}
330
DB
100
AcDbXrecord
280
     1
290
     1
  0
SORTENTSTABLE
  5
1B5
102
{ACAD_REACTORS
330
3
102
}
330
3
100
AcDbSortentsTable
330
2
331
19D8
  5
19D8
331
19E0
  5
19E1
331
1A1F
  5
1A20
331
1A56
  5
1A57
331
19E8
  5
19E9
331
1A27
  5
1A28
331
1A5E
  5
1A5F
331
19F0
  5
19F1
331
1A2F
  5
1A30
331
1A66
  5
1A67
331
1A6E
  5
1A6F
331
2033
  5
2033
331
204B
  5
204B
331
2010
  5
2010
331
1A76
  5
1A77
331
1A00
  5
1A01
331
1A37
  5
1A38
331
1A7E
  5
1A7F
331
1A08
  5
1A09
331
19C9
  5
19C9
331
1A3F
  5
1A40
331
1A86
  5
1A87
331
19D1
  5
19D1
331
1A10
  5
1A11
331
1A47
  5
1A48
331
1A4F
  5
1A50
331
1A8E
  5
1A8F
331
2020
  5
2020
331
19D9
  5
19D9
331
1A18
  5
1A19
331
19E1
  5
19E2
331
1A20
  5
1A21
331
1A57
  5
1A58
331
19E9
  5
19EA
331
1A28
  5
1A29
331
1A5F
  5
1A60
331
19F1
  5
19F2
331
1A67
  5
1A68
331
1A6F
  5
1A70
331
2034
  5
2034
331
203C
  5
203C
331
2044
  5
2044
331
204C
  5
204C
331
2011
  5
2011
331
1A30
  5
1A31
331
1A77
  5
1A78
331
1A01
  5
1A02
331
1A38
  5
1A39
331
1A7F
  5
1A80
331
1A09
  5
1A0A
331
19CA
  5
19CA
331
1A40
  5
1A41
331
19D2
  5
19D2
331
1A11
  5
1A12
331
1A48
  5
1A49
331
1A87
  5
1A88
331
1A8F
  5
1A90
331
2021
  5
2021
331
19DA
  5
19DA
331
1A19
  5
1A1A
331
1A50
  5
1A51
331
19E2
  5
19E3
331
1A21
  5
1A22
331
1A58
  5
1A59
331
19EA
  5
19EB
331
1A29
  5
1A2A
331
1A60
  5
1A61
331
19F2
  5
19F3
331
1A68
  5
1A69
331
2035
  5
2035
331
203D
  5
203D
331
2045
  5
2045
331
204D
  5
204D
331
2012
  5
2012
331
1A70
  5
1A71
331
1A31
  5
1A32
331
1A78
  5
1A79
331
1A02
  5
1A03
331
1A39
  5
1A3A
331
1A80
  5
1A82
331
1A0A
  5
1A0B
331
19CB
  5
19CB
331
1A41
  5
1A42
331
19D3
  5
19D3
331
1A12
  5
1A13
331
1A49
  5
1A4A
331
1A88
  5
1A89
331
1BD0
  5
19DF
331
201A
  5
201A
331
2022
  5
2022
331
19DB
  5
19DB
331
1A1A
  5
1A1B
331
1A51
  5
1A52
331
19E3
  5
19E4
331
1A22
  5
1A23
331
1A59
  5
1A5A
331
19EB
  5
19EC
331
1A2A
  5
1A2B
331
1A61
  5
1A62
331
19F3
  5
19F4
331
1A69
  5
1A6A
331
2036
  5
2036
331
203E
  5
203E
331
2046
  5
2046
331
2013
  5
2013
331
204E
  5
204E
331
1A71
  5
1A72
331
1A32
  5
1A33
331
1A79
  5
1A7A
331
1A03
  5
1A04
331
1A3A
  5
1A3B
331
1A0B
  5
1A0C
331
19CC
  5
19CC
331
1A42
  5
1A43
331
19D4
  5
19D4
331
1A13
  5
1A14
331
1A4A
  5
1A4B
331
1A89
  5
1A8A
331
201B
  5
201B
331
2023
  5
2023
331
19DC
  5
19DC
331
1A1B
  5
1A1C
331
1A52
  5
1A53
331
19E4
  5
19E5
331
1A23
  5
1A24
331
1A5A
  5
1A5B
331
19EC
  5
19ED
331
1A2B
  5
1A2C
331
1A62
  5
1A63
331
19F4
  5
19F5
331
1A6A
  5
1A6B
331
2047
  5
2047
331
1A72
  5
1A73
331
1A33
  5
1A34
331
1A7A
  5
1A7B
331
1A04
  5
1A05
331
1A3B
  5
1A3C
331
1A82
  5
1A83
331
1A0C
  5
1A0D
331
19CD
  5
19CD
331
1A43
  5
1A44
331
19D5
  5
19D5
331
1A14
  5
1A15
331
1A4B
  5
1A4C
331
1A8A
  5
1A8B
331
201C
  5
201C
331
2024
  5
2024
331
19DD
  5
19DD
331
1A1C
  5
1A1D
331
1A53
  5
1A54
331
19E5
  5
19E6
331
1A24
  5
1A25
331
1A5B
  5
1A5C
331
19ED
  5
19EE
331
1A2C
  5
1A2D
331
1A63
  5
1A64
331
19F5
  5
19F6
331
1A6B
  5
1A6C
331
2030
  5
2030
331
1A73
  5
1A74
331
1A34
  5
1A35
331
1A7B
  5
1A7C
331
1A05
  5
1A06
331
19C6
  5
19C6
331
1A3C
  5
1A3D
331
1A83
  5
1A84
331
1A0D
  5
1A0E
331
19CE
  5
19CE
331
1A44
  5
1A45
331
19D6
  5
19D6
331
1A15
  5
1A16
331
1A4C
  5
1A4D
331
1A8B
  5
1A8C
331
201D
  5
201D
331
202D
  5
202D
331
1A1D
  5
1A1E
331
1A54
  5
1A55
331
19E6
  5
19E7
331
1A25
  5
1A26
331
1A5C
  5
1A5D
331
19EE
  5
19EF
331
1A2D
  5
1A2E
331
1A64
  5
1A65
331
19F6
  5
19F7
331
1A6C
  5
1A6D
331
2031
  5
2031
331
2041
  5
2041
331
200E
  5
200E
331
1A74
  5
1A75
331
1A35
  5
1A36
331
1A7C
  5
1A7D
331
1A06
  5
1A07
331
19C7
  5
19C7
331
1A3D
  5
1A3E
331
1A84
  5
1A85
331
1A0E
  5
1A0F
331
19CF
  5
19CF
331
1A45
  5
1A46
331
19D7
  5
19D7
331
1A16
  5
1A17
331
1A4D
  5
1A4E
331
1A8C
  5
1A8D
331
201E
  5
201E
331
202E
  5
202E
331
19DF
  5
19E0
331
1A1E
  5
1A1F
331
1A55
  5
1A56
331
19E7
  5
19E8
331
1A26
  5
1A27
331
1A5D
  5
1A5E
331
19EF
  5
19F0
331
1A2E
  5
1A2F
331
1A65
  5
1A66
331
19F7
  5
19F8
331
1A6D
  5
1A6E
331
2032
  5
2032
331
2042
  5
2042
331
204A
  5
204A
331
200F
  5
200F
331
1A75
  5
1A76
331
1A36
  5
1A37
331
1A7D
  5
1A7E
331
1A07
  5
1A08
331
19C8
  5
19C8
331
1A3E
  5
1A3F
331
1A85
  5
1A86
331
19D0
  5
19D0
331
1A0F
  5
1A10
331
1A46
  5
1A47
331
1A17
  5
1A18
331
1A4E
  5
1A4F
331
1A8D
  5
1A8E
331
201F
  5
201F
331
202F
  5
202F
  0
ACAD_EVALUATION_GRAPH
  5
177A
102
{ACAD_REACTORS
330
1779
102
}
330
1779
100
AcDbEvalGraph
 96
        0
 97
        0
  0
SORTENTSTABLE
  5
177B
102
{ACAD_REACTORS
330
1779
102
}
330
1779
100
AcDbSortentsTable
330
1778
  0
ACDB_DYNAMICBLOCKPURGEPREVENTER_VERSION
  5
177C
102
{ACAD_REACTORS
330
1779
102
}
330
1779
100
AcDbDynamicBlockPurgePreventer
 70
     1
  0
SORTENTSTABLE
  5
17DB
102
{ACAD_REACTORS
330
17DA
102
}
330
17DA
100
AcDbSortentsTable
330
17A6
  0
SORTENTSTABLE
  5
1DB3
102
{ACAD_REACTORS
330
1DB2
102
}
330
1DB2
100
AcDbSortentsTable
330
1DB1
  0
SORTENTSTABLE
  5
1DEE
102
{ACAD_REACTORS
330
1DED
102
}
330
1DED
100
AcDbSortentsTable
330
1DEC
  0
SORTENTSTABLE
  5
1E36
102
{ACAD_REACTORS
330
1E35
102
}
330
1E35
100
AcDbSortentsTable
330
1E34
  0
SORTENTSTABLE
  5
1E3D
102
{ACAD_REACTORS
330
1E3C
102
}
330
1E3C
100
AcDbSortentsTable
330
1E3B
  0
SORTENTSTABLE
  5
1E53
102
{ACAD_REACTORS
330
1E52
102
}
330
1E52
100
AcDbSortentsTable
330
1E51
  0
SORTENTSTABLE
  5
1F39
102
{ACAD_REACTORS
330
1F38
102
}
330
1F38
100
AcDbSortentsTable
330
1F37
  0
SORTENTSTABLE
  5
200C
102
{ACAD_REACTORS
330
1FBB
102
}
330
1FBB
100
AcDbSortentsTable
330
1F79
331
1FD9
  5
1FDB
331
1FFF
  5
1FEE
331
1FE1
  5
1FE5
331
1FE9
  5
1FF0
331
2007
  5
2008
331
1FF1
  5
1FF8
331
1FD3
  5
1FD5
331
1FF8
  5
1FFF
331
1FDA
  5
1FDC
331
2000
  5
2005
331
1FE2
  5
1FE6
331
1FEA
  5
1FF1
331
2008
  5
2009
331
1FCC
  5
1FCE
331
1FF2
  5
1FF9
331
1FD4
  5
1FD6
331
1FF9
  5
2000
331
1FDB
  5
1FDD
331
2001
  5
1FCD
331
1FE3
  5
1FE7
331
1FEB
  5
1FF2
331
2009
  5
200A
331
1FCD
  5
1FCF
331
1FF3
  5
1FFA
331
1FD5
  5
1FD7
331
1FFA
  5
2001
331
1FDC
  5
1FDE
331
2002
  5
2006
331
1FE4
  5
1FE8
331
1FCE
  5
1FD0
331
1FEC
  5
1FF3
331
200A
  5
1FED
331
1FF4
  5
1FFB
331
1FD6
  5
1FD8
331
1FFB
  5
2002
331
1FDD
  5
1FE1
331
1FE5
  5
1FE9
331
2003
  5
1FDF
331
1FED
  5
1FF4
331
1FCF
  5
1FD1
331
1FF5
  5
1FFC
331
1FD7
  5
1FD9
331
1FFC
  5
2003
331
1FDE
  5
1FE2
331
2004
  5
1FE0
331
1FE6
  5
1FEA
331
1FEE
  5
1FF5
331
1FD0
  5
1FD2
331
1FF6
  5
1FFD
331
1FFD
  5
2004
331
1FDF
  5
1FE3
331
2005
  5
1FCC
331
1FE7
  5
1FEB
331
1FEF
  5
1FF6
331
1FD1
  5
1FD3
331
1FF7
  5
1FFE
331
1FD8
  5
1FDA
331
1FFE
  5
1FEC
331
1FE0
  5
1FE4
331
1FE8
  5
1FEF
331
2006
  5
2007
331
1FF0
  5
1FF7
331
1FD2
  5
1FD4
  0
XRECORD
  5
20B9
102
{ACAD_REACTORS
330
20B8
102
}
330
20B8
100
AcDbXrecord
280
     1
 40
283676.0
  1
\pxsm1,qc;{\fISOCPEUR|b0|i0|c0|p34;\W1;Description\POutline drawing}
  0
BREAKDATA
  5
1CAE
102
{ACAD_REACTORS
330
1CA4
102
}
330
1CA4
100
AcDbBreakData
 70
     0
330
1A00
 90
        3
100
AcDbBreakPointRef
 71
     2
 72
     0
 91
        1
 10
2010.939081651117
 20
797.8029529394711
 30
0.0
 11
2011.321566517252
 21
797.8029529394711
 31
0.0
100
AcDbBreakPointRef
 71
     2
 72
     0
 91
        1
 10
2015.153194164742
 20
797.8029529394711
 30
0.0
 11
2015.42729780995
 21
797.8029529394711
 31
0.0
100
AcDbBreakPointRef
 71
     2
 72
     0
 91
        1
 10
2018.869317960413
 20
797.8029529394711
 30
0.0
 11
2019.205087779426
 21
797.8029529394711
 31
0.0
  0
BREAKDATA
  5
1D4F
102
{ACAD_REACTORS
330
1D44
102
}
330
1D44
100
AcDbBreakData
 70
     0
330
1A0B
 90
        3
100
AcDbBreakPointRef
 71
     2
 72
     0
 91
        0
 10
2015.537000979613
 20
805.052952939471
 30
0.0
 11
2014.920102921292
 21
805.052952939471
 31
0.0
100
AcDbBreakPointRef
 71
     2
 72
     0
 91
        1
 10
2015.574224001388
 20
800.552952939471
 30
0.0
 11
2014.967586783253
 21
800.552952939471
 31
0.0
100
AcDbBreakPointRef
 71
     2
 72
     0
 91
        1
 10
2011.439186931802
 20
800.552952939471
 30
0.0
 11
2010.822417869258
 21
800.552952939471
 31
0.0
  0
BREAKDATA
  5
1D1F
102
{ACAD_REACTORS
330
1D12
102
}
330
1D12
100
AcDbBreakData
 70
     0
330
1A0D
 90
        1
100
AcDbBreakPointRef
 71
     2
 72
     0
 91
        3
 10
2015.481960028979
 20
805.052952939471
 30
0.0
 11
2014.963992444887
 21
805.052952939471
 31
0.0
  0
XRECORD
  5
20BB
102
{ACAD_REACTORS
330
20BA
102
}
330
20BA
100
AcDbXrecord
280
     1
 40
315119.0
  1
\pxqc;{\fISOCPEUR|b0|i0|c0|p34;\W1;\C7;22N  .1001\C255;\P\psm1;Outline drawing}
  0
LAYOUT
  5
1D
102
{ACAD_REACTORS
330
18
102
}
330
18
100
AcDbPlotSettings
  1

  2
Microsoft Office Document Image Writer
  4

  6

 40
0.0
 41
0.0
 42
0.0
 43
0.0
 44
0.0
 45
0.0
 46
0.0
 47
0.0
 48
0.0
 49
0.0
140
0.0
141
0.0
142
1.0
143
1.0
 70
   688
 72
     0
 73
     0
 74
     5
  7
C:\Documents and Settings\sandesh.gangan\Application Data\Autodesk\AutoCAD 2008\R17.1\enu\Plot Styles\SANDESH.ctb
 75
    16
147
1.0
 76
     0
 77
     2
 78
   300
148
0.0
149
0.0
100
AcDbLayout
  1
Layout1
 70
     1
 71
     1
 10
0.0
 20
0.0
 11
12.0
 21
9.0
 12
0.0
 22
0.0
 32
0.0
 14
1.000000000000000E+20
 24
1.000000000000000E+20
 34
1.000000000000000E+20
 15
-1.000000000000000E+20
 25
-1.000000000000000E+20
 35
-1.000000000000000E+20
146
0.0
 13
0.0
 23
0.0
 33
0.0
 16
1.0
 26
0.0
 36
0.0
 17
0.0
 27
1.0
 37
0.0
 76
     0
330
1A
  0
LAYOUT
  5
17
102
{ACAD_REACTORS
330
18
102
}
330
18
100
AcDbPlotSettings
  1

  2
Microsoft Office Document Image Writer
  4
Letter
  6

 40
3.174999952316284
 41
3.174999952316284
 42
3.175003051757812
 43
3.17498779296875
 44
215.8999938964844
 45
279.3999938964844
 46
0.0
 47
0.0
 48
0.0
 49
0.0
140
0.0
141
0.0
142
1.0
143
48.66106056873809
 70
 11952
 72
     0
 73
     1
 74
     0
  7
C:\Documents and Settings\sandesh.gangan\Application Data\Autodesk\AutoCAD 2008\R17.1\enu\Plot Styles\SANDESH.ctb
 75
     0
147
0.0205503124739218
 76
     0
 77
     2
 78
   300
148
-1876.80842767364
149
3240.787716977884
100
AcDbLayout
  1
Model
 70
     1
 71
     0
 10
0.0
 20
0.0
 11
12.0
 21
9.0
 12
0.0
 22
0.0
 32
0.0
 14
0.0
 24
0.0
 34
0.0
 15
0.0
 25
0.0
 35
0.0
146
0.0
 13
0.0
 23
0.0
 33
0.0
 16
1.0
 26
0.0
 36
0.0
 17
0.0
 27
1.0
 37
0.0
 76
     0
330
2
331
29
1001
ACAD_PSEXT
1000
Microsoft Office Document Image Writer
1000
Microsoft Office Document Image Writer Driver
1000
Microsoft Document Imaging Writer Port:
1000

1070
     0
  0
MATERIAL
  5
3F
102
{ACAD_XDICTIONARY
360
40
102
}
102
{ACAD_REACTORS
330
D
102
}
330
D
100
AcDbMaterial
  1
ByBlock
 72
     0
 43
0.0208333333333333
 43
0.0
 43
0.0
 43
0.0
 43
0.0
 43
0.0208333333333333
 43
0.0
 43
0.0
 43
0.0
 43
0.0
 43
1.0
 43
0.0
 43
0.0
 43
0.0
 43
0.0
 43
1.0
 77
     0
 47
0.0208333333333333
 47
0.0
 47
0.0
 47
0.0
 47
0.0
 47
0.0208333333333333
 47
0.0
 47
0.0
 47
0.0
 47
0.0
 47
1.0
 47
0.0
 47
0.0
 47
0.0
 47
0.0
 47
1.0
171
     0
 49
0.0208333333333333
 49
0.0
 49
0.0
 49
0.0
 49
0.0
 49
0.0208333333333333
 49
0.0
 49
0.0
 49
0.0
 49
0.0
 49
1.0
 49
0.0
 49
0.0
 49
0.0
 49
0.0
 49
1.0
175
     0
142
0.0208333333333333
142
0.0
142
0.0
142
0.0
142
0.0
142
0.0208333333333333
142
0.0
142
0.0
142
0.0
142
0.0
142
1.0
142
0.0
142
0.0
142
0.0
142
0.0
142
1.0
179
     0
144
0.0208333333333333
144
0.0
144
0.0
144
0.0
144
0.0
144
0.0208333333333333
144
0.0
144
0.0
144
0.0
144
0.0
144
1.0
144
0.0
144
0.0
144
0.0
144
0.0
144
1.0
147
0.0208333333333333
147
0.0
147
0.0
147
0.0
147
0.0
147
0.0208333333333333
147
0.0
147
0.0
147
0.0
147
0.0
147
1.0
147
0.0
147
0.0
147
0.0
147
0.0
147
1.0
  0
MATERIAL
  5
37
102
{ACAD_XDICTIONARY
360
38
102
}
102
{ACAD_REACTORS
330
D
102
}
330
D
100
AcDbMaterial
  1
ByLayer
 72
     0
 43
0.0208333333333333
 43
0.0
 43
0.0
 43
0.0
 43
0.0
 43
0.0208333333333333
 43
0.0
 43
0.0
 43
0.0
 43
0.0
 43
1.0
 43
0.0
 43
0.0
 43
0.0
 43
0.0
 43
1.0
 77
     0
 47
0.0208333333333333
 47
0.0
 47
0.0
 47
0.0
 47
0.0
 47
0.0208333333333333
 47
0.0
 47
0.0
 47
0.0
 47
0.0
 47
1.0
 47
0.0
 47
0.0
 47
0.0
 47
0.0
 47
1.0
171
     0
 49
0.0208333333333333
 49
0.0
 49
0.0
 49
0.0
 49
0.0
 49
0.0208333333333333
 49
0.0
 49
0.0
 49
0.0
 49
0.0
 49
1.0
 49
0.0
 49
0.0
 49
0.0
 49
0.0
 49
1.0
175
     0
142
0.0208333333333333
142
0.0
142
0.0
142
0.0
142
0.0
142
0.0208333333333333
142
0.0
142
0.0
142
0.0
142
0.0
142
1.0
142
0.0
142
0.0
142
0.0
142
0.0
142
1.0
179
     0
144
0.0208333333333333
144
0.0
144
0.0
144
0.0
144
0.0
144
0.0208333333333333
144
0.0
144
0.0
144
0.0
144
0.0
144
1.0
144
0.0
144
0.0
144
0.0
144
0.0
144
1.0
147
0.0208333333333333
147
0.0
147
0.0
147
0.0
147
0.0
147
0.0208333333333333
147
0.0
147
0.0
147
0.0
147
0.0
147
1.0
147
0.0
147
0.0
147
0.0
147
0.0
147
1.0
  0
MATERIAL
  5
C
102
{ACAD_XDICTIONARY
360
E
102
}
102
{ACAD_REACTORS
330
D
102
}
330
D
100
AcDbMaterial
  1
Global
 72
     0
 43
0.0208333333333333
 43
0.0
 43
0.0
 43
0.0
 43
0.0
 43
0.0208333333333333
 43
0.0
 43
0.0
 43
0.0
 43
0.0
 43
1.0
 43
0.0
 43
0.0
 43
0.0
 43
0.0
 43
1.0
 77
     0
 47
0.0208333333333333
 47
0.0
 47
0.0
 47
0.0
 47
0.0
 47
0.0208333333333333
 47
0.0
 47
0.0
 47
0.0
 47
0.0
 47
1.0
 47
0.0
 47
0.0
 47
0.0
 47
0.0
 47
1.0
171
     0
 49
0.0208333333333333
 49
0.0
 49
0.0
 49
0.0
 49
0.0
 49
0.0208333333333333
 49
0.0
 49
0.0
 49
0.0
 49
0.0
 49
1.0
 49
0.0
 49
0.0
 49
0.0
 49
0.0
 49
1.0
175
     0
142
0.0208333333333333
142
0.0
142
0.0
142
0.0
142
0.0
142
0.0208333333333333
142
0.0
142
0.0
142
0.0
142
0.0
142
1.0
142
0.0
142
0.0
142
0.0
142
0.0
142
1.0
179
     0
144
0.0208333333333333
144
0.0
144
0.0
144
0.0
144
0.0
144
0.0208333333333333
144
0.0
144
0.0
144
0.0
144
0.0
144
1.0
144
0.0
144
0.0
144
0.0
144
0.0
144
1.0
147
0.0208333333333333
147
0.0
147
0.0
147
0.0
147
0.0
147
0.0208333333333333
147
0.0
147
0.0
147
0.0
147
0.0
147
1.0
147
0.0
147
0.0
147
0.0
147
0.0
147
1.0
  0
MLEADERSTYLE
  5
1E2
102
{ACAD_REACTORS
330
1E1
102
}
330
1E1
100
AcDbMLeaderStyle
170
     2
171
     1
172
     0
 90
        2
 40
0.0
 41
0.0
173
     1
 91
-1056964608
340
24
 92
       -2
290
     1
 42
0.09
291
     1
 43
0.36
  3
Standard
 44
0.18
300

342
20
174
     1
178
     6
175
     1
176
     0
 93
-1056964608
 45
0.18
292
     0
297
     0
 46
0.18
 94
-1056964608
 47
1.0
 49
1.0
140
1.0
293
     1
141
0.0
294
     1
177
     0
142
1.0
295
     0
296
     0
143
0.125
1001
ACAD_MLEADERVER
1070
     2
  0
MLINESTYLE
  5
4A
102
{ACAD_REACTORS
330
35
102
}
330
35
100
AcDbMlineStyle
  2
STANDARD
 70
     0
  3

 62
   256
 51
90.0
 52
90.0
 71
     2
 49
0.5
 62
   256
  6
BYLAYER
 49
-0.5
 62
   256
  6
BYLAYER
  0
ACDBPLACEHOLDER
  5
9
102
{ACAD_REACTORS
330
A
102
}
330
A
  0
SCALE
  5
4F
102
{ACAD_REACTORS
330
48
102
}
330
48
100
AcDbScale
 70
     0
300
1:1
140
1.0
141
1.0
290
     1
  0
SCALE
  5
50
102
{ACAD_REACTORS
330
48
102
}
330
48
100
AcDbScale
 70
     0
300
1:2
140
1.0
141
2.0
290
     0
  0
SCALE
  5
51
102
{ACAD_REACTORS
330
48
102
}
330
48
100
AcDbScale
 70
     0
300
1:4
140
1.0
141
4.0
290
     0
  0
SCALE
  5
52
102
{ACAD_REACTORS
330
48
102
}
330
48
100
AcDbScale
 70
     0
300
1:5
140
1.0
141
5.0
290
     0
  0
SCALE
  5
53
102
{ACAD_REACTORS
330
48
102
}
330
48
100
AcDbScale
 70
     0
300
1:8
140
1.0
141
8.0
290
     0
  0
SCALE
  5
54
102
{ACAD_REACTORS
330
48
102
}
330
48
100
AcDbScale
 70
     0
300
1:10
140
1.0
141
10.0
290
     0
  0
SCALE
  5
55
102
{ACAD_REACTORS
330
48
102
}
330
48
100
AcDbScale
 70
     0
300
1:16
140
1.0
141
16.0
290
     0
  0
SCALE
  5
56
102
{ACAD_REACTORS
330
48
102
}
330
48
100
AcDbScale
 70
     0
300
1:20
140
1.0
141
20.0
290
     0
  0
SCALE
  5
57
102
{ACAD_REACTORS
330
48
102
}
330
48
100
AcDbScale
 70
     0
300
1:30
140
1.0
141
30.0
290
     0
  0
SCALE
  5
58
102
{ACAD_REACTORS
330
48
102
}
330
48
100
AcDbScale
 70
     0
300
1:40
140
1.0
141
40.0
290
     0
  0
SCALE
  5
59
102
{ACAD_REACTORS
330
48
102
}
330
48
100
AcDbScale
 70
     0
300
1:50
140
1.0
141
50.0
290
     0
  0
SCALE
  5
5A
102
{ACAD_REACTORS
330
48
102
}
330
48
100
AcDbScale
 70
     0
300
1:100
140
1.0
141
100.0
290
     0
  0
SCALE
  5
5B
102
{ACAD_REACTORS
330
48
102
}
330
48
100
AcDbScale
 70
     0
300
2:1
140
2.0
141
1.0
290
     0
  0
SCALE
  5
5C
102
{ACAD_REACTORS
330
48
102
}
330
48
100
AcDbScale
 70
     0
300
4:1
140
4.0
141
1.0
290
     0
  0
SCALE
  5
5D
102
{ACAD_REACTORS
330
48
102
}
330
48
100
AcDbScale
 70
     0
300
8:1
140
8.0
141
1.0
290
     0
  0
SCALE
  5
5E
102
{ACAD_REACTORS
330
48
102
}
330
48
100
AcDbScale
 70
     0
300
10:1
140
10.0
141
1.0
290
     0
  0
SCALE
  5
5F
102
{ACAD_REACTORS
330
48
102
}
330
48
100
AcDbScale
 70
     0
300
100:1
140
100.0
141
1.0
290
     0
  0
SCALE
  5
60
102
{ACAD_REACTORS
330
48
102
}
330
48
100
AcDbScale
 70
     0
300
1/128" = 1'-0"
140
0.0078125
141
12.0
290
     0
  0
SCALE
  5
61
102
{ACAD_REACTORS
330
48
102
}
330
48
100
AcDbScale
 70
     0
300
1/64" = 1'-0"
140
0.015625
141
12.0
290
     0
  0
SCALE
  5
62
102
{ACAD_REACTORS
330
48
102
}
330
48
100
AcDbScale
 70
     0
300
1/32" = 1'-0"
140
0.03125
141
12.0
290
     0
  0
SCALE
  5
63
102
{ACAD_REACTORS
330
48
102
}
330
48
100
AcDbScale
 70
     0
300
1/16" = 1'-0"
140
0.0625
141
12.0
290
     0
  0
SCALE
  5
64
102
{ACAD_REACTORS
330
48
102
}
330
48
100
AcDbScale
 70
     0
300
3/32" = 1'-0"
140
0.09375
141
12.0
290
     0
  0
SCALE
  5
65
102
{ACAD_REACTORS
330
48
102
}
330
48
100
AcDbScale
 70
     0
300
1/8" = 1'-0"
140
0.125
141
12.0
290
     0
  0
SCALE
  5
66
102
{ACAD_REACTORS
330
48
102
}
330
48
100
AcDbScale
 70
     0
300
3/16" = 1'-0"
140
0.1875
141
12.0
290
     0
  0
SCALE
  5
67
102
{ACAD_REACTORS
330
48
102
}
330
48
100
AcDbScale
 70
     0
300
1/4" = 1'-0"
140
0.25
141
12.0
290
     0
  0
SCALE
  5
68
102
{ACAD_REACTORS
330
48
102
}
330
48
100
AcDbScale
 70
     0
300
3/8" = 1'-0"
140
0.375
141
12.0
290
     0
  0
SCALE
  5
69
102
{ACAD_REACTORS
330
48
102
}
330
48
100
AcDbScale
 70
     0
300
1/2" = 1'-0"
140
0.5
141
12.0
290
     0
  0
SCALE
  5
6A
102
{ACAD_REACTORS
330
48
102
}
330
48
100
AcDbScale
 70
     0
300
3/4" = 1'-0"
140
0.75
141
12.0
290
     0
  0
SCALE
  5
6B
102
{ACAD_REACTORS
330
48
102
}
330
48
100
AcDbScale
 70
     0
300
1" = 1'-0"
140
1.0
141
12.0
290
     0
  0
SCALE
  5
6C
102
{ACAD_REACTORS
330
48
102
}
330
48
100
AcDbScale
 70
     0
300
1-1/2" = 1'-0"
140
1.5
141
12.0
290
     0
  0
SCALE
  5
6D
102
{ACAD_REACTORS
330
48
102
}
330
48
100
AcDbScale
 70
     0
300
3" = 1'-0"
140
3.0
141
12.0
290
     0
  0
SCALE
  5
6E
102
{ACAD_REACTORS
330
48
102
}
330
48
100
AcDbScale
 70
     0
300
6" = 1'-0"
140
6.0
141
12.0
290
     0
  0
SCALE
  5
6F
102
{ACAD_REACTORS
330
48
102
}
330
48
100
AcDbScale
 70
     0
300
1'-0" = 1'-0"
140
12.0
141
12.0
290
     0
  0
TABLESTYLE
  5
4B
102
{ACAD_XDICTIONARY
360
4C
102
}
102
{ACAD_REACTORS
330
49
102
}
330
49
100
AcDbTableStyle
  3
Standard
 70
     0
 71
     0
 40
0.06
 41
0.06
280
     0
281
     0
  7
STANDARD
140
0.18
170
     2
 62
     0
 63
     7
283
     0
 90
      512
 91
        0
  1

274
    -2
284
     1
 64
     0
275
    -2
285
     1
 65
     0
276
    -2
286
     1
 66
     0
277
    -2
287
     1
 67
     0
278
    -2
288
     1
 68
     0
279
    -2
289
     1
 69
     0
  7
STANDARD
140
0.25
170
     5
 62
     0
 63
     7
283
     0
 90
      512
 91
        0
  1

274
    -2
284
     1
 64
     0
275
    -2
285
     1
 65
     0
276
    -2
286
     1
 66
     0
277
    -2
287
     1
 67
     0
278
    -2
288
     1
 68
     0
279
    -2
289
     1
 69
     0
  7
STANDARD
140
0.18
170
     5
 62
     0
 63
     7
283
     0
 90
      512
 91
        0
  1

274
    -2
284
     1
 64
     0
275
    -2
285
     1
 65
     0
276
    -2
286
     1
 66
     0
277
    -2
287
     1
 67
     0
278
    -2
288
     1
 68
     0
279
    -2
289
     1
 69
     0
  0
VISUALSTYLE
  5
2A
102
{ACAD_REACTORS
330
2B
102
}
330
2B
100
AcDbVisualStyle
  2
2dWireframe
 70
     4
 71
     0
 72
     2
 73
     0
 90
        0
 40
-0.6
 41
-30.0
 62
     5
 63
     7
 74
     1
 91
        4
 64
     7
 65
   257
 75
     1
175
     1
 42
1.0
 92
        0
 66
   257
 43
1.0
 76
     1
 77
     6
 78
     2
 67
     7
 79
     5
170
     0
171
     0
290
     0
174
     0
 93
        1
 44
0.0
173
     0
291
     0
 45
0.0
  0
VISUALSTYLE
  5
1D9
102
{ACAD_REACTORS
330
2B
102
}
330
2B
100
AcDbVisualStyle
  2
3D Hidden
 70
     6
 71
     1
 72
     2
 73
     2
 90
        0
 40
-0.6
 41
-30.0
 62
     5
 63
     7
 74
     2
 91
        2
 64
     7
 65
   257
 75
     2
175
     1
 42
40.0
 92
        0
 66
   257
 43
1.0
 76
     1
 77
     6
 78
     2
 67
     7
 79
     3
170
     0
171
     0
290
     0
174
     0
 93
        1
 44
0.0
173
     0
291
     0
 45
0.0
  0
VISUALSTYLE
  5
4E
102
{ACAD_REACTORS
330
2B
102
}
330
2B
100
AcDbVisualStyle
  2
3dWireframe
 70
     5
 71
     0
 72
     2
 73
     0
 90
        0
 40
-0.6
 41
-30.0
 62
     5
 63
     7
 74
     1
 91
        4
 64
     7
 65
   257
 75
     1
175
     1
 42
1.0
 92
        0
 66
   257
 43
1.0
 76
     1
 77
     6
 78
     2
 67
     7
 79
     5
170
     0
171
     0
290
     0
174
     0
 93
        1
 44
0.0
173
     0
291
     0
 45
0.0
  0
VISUALSTYLE
  5
1D8
102
{ACAD_REACTORS
330
2B
102
}
330
2B
100
AcDbVisualStyle
  2
Basic
 70
     7
 71
     1
 72
     0
 73
     1
 90
        0
 40
-0.6
 41
-30.0
 62
     5
 63
     7
 74
     0
 91
        4
 64
     7
 65
   257
 75
     1
175
     1
 42
1.0
 92
        8
 66
     7
 43
1.0
 76
     1
 77
     6
 78
     2
 67
     7
 79
     5
170
     0
171
     0
290
     0
174
     0
 93
        1
 44
0.0
173
     0
291
     1
 45
0.0
  0
VISUALSTYLE
  5
1DC
102
{ACAD_REACTORS
330
2B
102
}
330
2B
100
AcDbVisualStyle
  2
Brighten
 70
    12
 71
     2
 72
     2
 73
     0
 90
        0
 40
-0.6
 41
-30.0
 62
     5
 63
     7
 74
     1
 91
        4
 64
     7
 65
   257
 75
     1
175
     1
 42
1.0
 92
        8
 66
     7
 43
1.0
 76
     1
 77
     6
 78
     2
 67
     7
 79
     5
170
     0
171
     0
290
     0
174
     0
 93
        1
 44
50.0
173
     0
291
     1
 45
0.0
  0
VISUALSTYLE
  5
1E0
102
{ACAD_REACTORS
330
2B
102
}
330
2B
100
AcDbVisualStyle
  2
ColorChange
 70
    16
 71
     2
 72
     2
 73
     3
 90
        0
 40
-0.6
 41
-30.0
 62
     5
 63
     8
 74
     1
 91
        4
 64
     7
 65
   257
 75
     1
175
     1
 42
1.0
 92
        8
 66
     8
 43
1.0
 76
     1
 77
     6
 78
     2
 67
     7
 79
     5
170
     0
171
     0
290
     0
174
     0
 93
        1
 44
0.0
173
     0
291
     1
 45
0.0
  0
VISUALSTYLE
  5
1DA
102
{ACAD_REACTORS
330
2B
102
}
330
2B
100
AcDbVisualStyle
  2
Conceptual
 70
     9
 71
     3
 72
     2
 73
     0
 90
        0
 40
-0.6
 41
-30.0
 62
     5
 63
     7
 74
     2
 91
        2
 64
     7
 65
   257
 75
     1
175
     1
 42
40.0
 92
        8
 66
     7
 43
1.0
 76
     1
 77
     6
 78
     2
 67
     7
 79
     3
170
     0
171
     0
290
     0
174
     0
 93
        1
 44
0.0
173
     0
291
     0
 45
0.0
  0
VISUALSTYLE
  5
1DB
102
{ACAD_REACTORS
330
2B
102
}
330
2B
100
AcDbVisualStyle
  2
Dim
 70
    11
 71
     2
 72
     2
 73
     0
 90
        0
 40
-0.6
 41
-30.0
 62
     5
 63
     7
 74
     1
 91
        4
 64
     7
 65
   257
 75
     1
175
     1
 42
1.0
 92
        8
 66
     7
 43
1.0
 76
     1
 77
     6
 78
     2
 67
     7
 79
     5
170
     0
171
     0
290
     0
174
     0
 93
        1
 44
-50.0
173
     0
291
     1
 45
0.0
  0
VISUALSTYLE
  5
1F6E
102
{ACAD_XDICTIONARY
360
1F6F
102
}
102
{ACAD_REACTORS
330
2B
102
}
330
2B
100
AcDbVisualStyle
  2
EdgeColorOff
 70
    22
 71
     2
 72
     2
 73
     0
 90
        0
 40
-0.6
 41
-30.0
 62
     5
 63
     7
 74
     1
 91
        4
 64
     7
 65
   257
 75
     1
175
     1
 42
1.0
 92
        8
 66
     7
 43
1.0
 76
     1
 77
     6
 78
     2
 67
     7
 79
     5
170
     0
171
     0
290
     0
174
     0
 93
        1
 44
0.0
173
     0
291
     1
 45
0.0
  0
VISUALSTYLE
  5
1DF
102
{ACAD_REACTORS
330
2B
102
}
330
2B
100
AcDbVisualStyle
  2
Facepattern
 70
    15
 71
     2
 72
     2
 73
     0
 90
        0
 40
-0.6
 41
-30.0
 62
     5
 63
     7
 74
     1
 91
        4
 64
     7
 65
   257
 75
     1
175
     1
 42
1.0
 92
        8
 66
     7
 43
1.0
 76
     1
 77
     6
 78
     2
 67
     7
 79
     5
170
     0
171
     0
290
     0
174
     0
 93
        1
 44
0.0
173
     0
291
     1
 45
0.0
  0
VISUALSTYLE
  5
1D4
102
{ACAD_REACTORS
330
2B
102
}
330
2B
100
AcDbVisualStyle
  2
Flat
 70
     0
 71
     2
 72
     1
 73
     1
 90
        2
 40
-0.6
 41
30.0
 62
     5
 63
     7
 74
     0
 91
        4
 64
     7
 65
   257
 75
     1
175
     1
 42
1.0
 92
        8
 66
     7
 43
1.0
 76
     1
 77
     6
 78
     2
 67
     7
 79
     5
170
     0
171
     0
290
     0
174
     0
 93
       13
 44
0.0
173
     0
291
     1
 45
0.0
  0
VISUALSTYLE
  5
1D5
102
{ACAD_REACTORS
330
2B
102
}
330
2B
100
AcDbVisualStyle
  2
FlatWithEdges
 70
     1
 71
     2
 72
     1
 73
     1
 90
        2
 40
-0.6
 41
30.0
 62
     5
 63
     7
 74
     1
 91
        4
 64
     7
 65
   257
 75
     1
175
     1
 42
1.0
 92
        0
 66
   257
 43
1.0
 76
     1
 77
     6
 78
     2
 67
     7
 79
     5
170
     0
171
     0
290
     0
174
     0
 93
       13
 44
0.0
173
     0
291
     1
 45
0.0
  0
VISUALSTYLE
  5
1D6
102
{ACAD_REACTORS
330
2B
102
}
330
2B
100
AcDbVisualStyle
  2
Gouraud
 70
     2
 71
     2
 72
     2
 73
     1
 90
        2
 40
-0.6
 41
30.0
 62
     5
 63
     7
 74
     0
 91
        4
 64
     7
 65
   257
 75
     1
175
     1
 42
1.0
 92
        0
 66
     7
 43
1.0
 76
     1
 77
     6
 78
     2
 67
     7
 79
     5
170
     0
171
     0
290
     0
174
     0
 93
       13
 44
0.0
173
     0
291
     1
 45
0.0
  0
VISUALSTYLE
  5
1D7
102
{ACAD_REACTORS
330
2B
102
}
330
2B
100
AcDbVisualStyle
  2
GouraudWithEdges
 70
     3
 71
     2
 72
     2
 73
     1
 90
        2
 40
-0.6
 41
30.0
 62
     5
 63
     7
 74
     1
 91
        4
 64
     7
 65
   257
 75
     1
175
     1
 42
1.0
 92
        0
 66
   257
 43
1.0
 76
     1
 77
     6
 78
     2
 67
     7
 79
     5
170
     0
171
     0
290
     0
174
     0
 93
       13
 44
0.0
173
     0
291
     1
 45
0.0
  0
VISUALSTYLE
  5
1F71
102
{ACAD_XDICTIONARY
360
1F72
102
}
102
{ACAD_REACTORS
330
2B
102
}
330
2B
100
AcDbVisualStyle
  2
JitterOff
 70
    20
 71
     2
 72
     2
 73
     0
 90
        0
 40
-0.6
 41
-30.0
 62
     5
 63
     7
 74
     1
 91
        4
 64
     7
 65
   257
 75
     1
175
     1
 42
1.0
 92
       10
 66
     7
 43
1.0
 76
     1
 77
     6
 78
     2
 67
     7
 79
     5
170
     0
171
     0
290
     0
174
     0
 93
        1
 44
0.0
173
     0
291
     1
 45
0.0
  0
VISUALSTYLE
  5
1DE
102
{ACAD_REACTORS
330
2B
102
}
330
2B
100
AcDbVisualStyle
  2
Linepattern
 70
    14
 71
     2
 72
     2
 73
     0
 90
        0
 40
-0.6
 41
-30.0
 62
     5
 63
     7
 74
     1
 91
        4
 64
     7
 65
   257
 75
     7
175
     7
 42
1.0
 92
        8
 66
     7
 43
1.0
 76
     1
 77
     6
 78
     2
 67
     7
 79
     5
170
     0
171
     0
290
     0
174
     0
 93
        1
 44
0.0
173
     0
291
     1
 45
0.0
  0
VISUALSTYLE
  5
1F74
102
{ACAD_XDICTIONARY
360
1F75
102
}
102
{ACAD_REACTORS
330
2B
102
}
330
2B
100
AcDbVisualStyle
  2
OverhangOff
 70
    21
 71
     2
 72
     2
 73
     0
 90
        0
 40
-0.6
 41
-30.0
 62
     5
 63
     7
 74
     1
 91
        4
 64
     7
 65
   257
 75
     1
175
     1
 42
1.0
 92
        9
 66
     7
 43
1.0
 76
     1
 77
     6
 78
     2
 67
     7
 79
     5
170
     0
171
     0
290
     0
174
     0
 93
        1
 44
0.0
173
     0
291
     1
 45
0.0
  0
VISUALSTYLE
  5
4D
102
{ACAD_REACTORS
330
2B
102
}
330
2B
100
AcDbVisualStyle
  2
Realistic
 70
     8
 71
     2
 72
     2
 73
     0
 90
        0
 40
-0.6
 41
-30.0
 62
     5
 63
     7
 74
     1
 91
        0
 64
     7
 65
   257
 75
     1
175
     1
 42
1.0
 92
        8
 66
     8
 43
1.0
 76
     1
 77
     6
 78
     2
 67
     7
 79
     5
170
     0
171
     0
290
     0
174
     0
 93
       13
 44
0.0
173
     0
291
     0
 45
0.0
  0
VISUALSTYLE
  5
1DD
102
{ACAD_REACTORS
330
2B
102
}
330
2B
100
AcDbVisualStyle
  2
Thicken
 70
    13
 71
     2
 72
     2
 73
     0
 90
        0
 40
-0.6
 41
-30.0
 62
     5
 63
     7
 74
     1
 91
        4
 64
     7
 65
   257
 75
     1
175
     1
 42
1.0
 92
       12
 66
     7
 43
1.0
 76
     1
 77
     6
 78
     2
 67
     7
 79
     5
170
     0
171
     0
290
     0
174
     0
 93
        1
 44
0.0
173
     0
291
     1
 45
0.0
  0
DICTIONARYVAR
  5
1CE
102
{ACAD_REACTORS
330
1CA
102
}
330
1CA
100
DictionaryVariables
280
     0
  1
1:1
  0
DICTIONARYVAR
  5
1CC
102
{ACAD_REACTORS
330
1CA
102
}
330
1CA
100
DictionaryVariables
280
     0
  1
STANDARD
  0
DICTIONARYVAR
  5
1CB
102
{ACAD_REACTORS
330
1CA
102
}
330
1CA
100
DictionaryVariables
280
     0
  1
STANDARD
  0
DICTIONARYVAR
  5
1D2
102
{ACAD_REACTORS
330
1CA
102
}
330
1CA
100
DictionaryVariables
280
     0
  1
1
  0
DICTIONARYVAR
  5
1D1
102
{ACAD_REACTORS
330
1CA
102
}
330
1CA
100
DictionaryVariables
280
     0
  1
1
  0
DICTIONARYVAR
  5
1D0
102
{ACAD_REACTORS
330
1CA
102
}
330
1CA
100
DictionaryVariables
280
     0
  1
0
  0
DICTIONARYVAR
  5
2092
102
{ACAD_REACTORS
330
1CA
102
}
330
1CA
100
DictionaryVariables
280
     0
  1
0
  0
DICTIONARYVAR
  5
1CD
102
{ACAD_REACTORS
330
1CA
102
}
330
1CA
100
DictionaryVariables
280
     0
  1
1
  0
DICTIONARYVAR
  5
1CF
102
{ACAD_REACTORS
330
1CA
102
}
330
1CA
100
DictionaryVariables
280
     0
  1
127
  0
DICTIONARY
  5
40
330
3F
100
AcDbDictionary
280
     1
281
     1
  3
BUMPTILE
360
41
  3
DIFFUSETILE
360
42
  3
OPACITYTILE
360
43
  3
REFLECTIONTILE
360
44
  3
REFRACTIONTILE
360
45
  3
SPECULARTILE
360
46
  0
DICTIONARY
  5
38
330
37
100
AcDbDictionary
280
     1
281
     1
  3
BUMPTILE
360
39
  3
DIFFUSETILE
360
3A
  3
OPACITYTILE
360
3B
  3
REFLECTIONTILE
360
3C
  3
REFRACTIONTILE
360
3D
  3
SPECULARTILE
360
3E
  0
DICTIONARY
  5
E
330
C
100
AcDbDictionary
280
     1
281
     1
  3
BUMPTILE
360
F
  3
DIFFUSETILE
360
10
  3
OPACITYTILE
360
11
  3
REFLECTIONTILE
360
12
  3
REFRACTIONTILE
360
13
  3
SPECULARTILE
360
14
  0
DICTIONARY
  5
4C
330
4B
100
AcDbDictionary
280
     1
281
     1
  3
ACAD_ROUNDTRIP_2008_TABLESTYLE_CELLSTYLEMAP
360
20B7
  0
DICTIONARY
  5
1F6F
330
1F6E
100
AcDbDictionary
280
     1
281
     1
  3
ACAD_XREC_ROUNDTRIP
360
1F70
  0
DICTIONARY
  5
1F72
330
1F71
100
AcDbDictionary
280
     1
281
     1
  3
ACAD_XREC_ROUNDTRIP
360
1F73
  0
DICTIONARY
  5
1F75
330
1F74
100
AcDbDictionary
280
     1
281
     1
  3
ACAD_XREC_ROUNDTRIP
360
1F76
  0
XRECORD
  5
41
102
{ACAD_REACTORS
330
40
102
}
330
40
100
AcDbXrecord
280
     1
270
     1
271
     1
  0
XRECORD
  5
42
102
{ACAD_REACTORS
330
40
102
}
330
40
100
AcDbXrecord
280
     1
270
     1
271
     1
  0
XRECORD
  5
43
102
{ACAD_REACTORS
330
40
102
}
330
40
100
AcDbXrecord
280
     1
270
     1
271
     1
  0
XRECORD
  5
44
102
{ACAD_REACTORS
330
40
102
}
330
40
100
AcDbXrecord
280
     1
270
     1
271
     1
  0
XRECORD
  5
45
102
{ACAD_REACTORS
330
40
102
}
330
40
100
AcDbXrecord
280
     1
270
     1
271
     1
  0
XRECORD
  5
46
102
{ACAD_REACTORS
330
40
102
}
330
40
100
AcDbXrecord
280
     1
270
     1
271
     1
  0
XRECORD
  5
39
102
{ACAD_REACTORS
330
38
102
}
330
38
100
AcDbXrecord
280
     1
270
     1
271
     1
  0
XRECORD
  5
3A
102
{ACAD_REACTORS
330
38
102
}
330
38
100
AcDbXrecord
280
     1
270
     1
271
     1
  0
XRECORD
  5
3B
102
{ACAD_REACTORS
330
38
102
}
330
38
100
AcDbXrecord
280
     1
270
     1
271
     1
  0
XRECORD
  5
3C
102
{ACAD_REACTORS
330
38
102
}
330
38
100
AcDbXrecord
280
     1
270
     1
271
     1
  0
XRECORD
  5
3D
102
{ACAD_REACTORS
330
38
102
}
330
38
100
AcDbXrecord
280
     1
270
     1
271
     1
  0
XRECORD
  5
3E
102
{ACAD_REACTORS
330
38
102
}
330
38
100
AcDbXrecord
280
     1
270
     1
271
     1
  0
XRECORD
  5
F
102
{ACAD_REACTORS
330
E
102
}
330
E
100
AcDbXrecord
280
     1
270
     1
271
     1
  0
XRECORD
  5
10
102
{ACAD_REACTORS
330
E
102
}
330
E
100
AcDbXrecord
280
     1
270
     1
271
     1
  0
XRECORD
  5
11
102
{ACAD_REACTORS
330
E
102
}
330
E
100
AcDbXrecord
280
     1
270
     1
271
     1
  0
XRECORD
  5
12
102
{ACAD_REACTORS
330
E
102
}
330
E
100
AcDbXrecord
280
     1
270
     1
271
     1
  0
XRECORD
  5
13
102
{ACAD_REACTORS
330
E
102
}
330
E
100
AcDbXrecord
280
     1
270
     1
271
     1
  0
XRECORD
  5
14
102
{ACAD_REACTORS
330
E
102
}
330
E
100
AcDbXrecord
280
     1
270
     1
271
     1
  0
CELLSTYLEMAP
  5
20B7
102
{ACAD_REACTORS
330
4C
102
}
330
4C
100
AcDbCellStyleMap
 90
        3
300
CELLSTYLE
  1
TABLEFORMAT_BEGIN
 90
        5
170
     1
 91
        0
 92
    32768
 62
   257
 93
        1
300
CONTENTFORMAT
  1
CONTENTFORMAT_BEGIN
 90
        0
 91
        0
 92
      512
 93
        0
300

 40
0.0
140
1.0
 94
        5
 62
     0
340
20
144
0.25
309
CONTENTFORMAT_END
171
     0
 94
        0
309
TABLEFORMAT_END
  1
CELLSTYLE_BEGIN
 90
        1
 91
        1
300
_TITLE
309
CELLSTYLE_END
300
CELLSTYLE
  1
TABLEFORMAT_BEGIN
 90
        5
170
     1
 91
        0
 92
        0
 62
   257
 93
        1
300
CONTENTFORMAT
  1
CONTENTFORMAT_BEGIN
 90
        0
 91
        0
 92
      512
 93
        0
300

 40
0.0
140
1.0
 94
        5
 62
     0
340
20
144
0.18
309
CONTENTFORMAT_END
171
     0
 94
        0
309
TABLEFORMAT_END
  1
CELLSTYLE_BEGIN
 90
        2
 91
        1
300
_HEADER
309
CELLSTYLE_END
300
CELLSTYLE
  1
TABLEFORMAT_BEGIN
 90
        5
170
     1
 91
        0
 92
        0
 62
   257
 93
        1
300
CONTENTFORMAT
  1
CONTENTFORMAT_BEGIN
 90
        0
 91
        0
 92
      512
 93
        0
300

 40
0.0
140
1.0
 94
        2
 62
     0
340
20
144
0.18
309
CONTENTFORMAT_END
171
     0
 94
        0
309
TABLEFORMAT_END
  1
CELLSTYLE_BEGIN
 90
        3
 91
        2
300
_DATA
309
CELLSTYLE_END
  0
XRECORD
  5
1F70
102
{ACAD_REACTORS
330
1F6F
102
}
330
1F6F
100
AcDbXrecord
280
     1
102
RTVSPropertyOp0
 70
     0
102
RTVSPropertyOp1
 70
     0
102
RTVSPropertyOp2
 70
     0
102
RTVSPropertyOp3
 70
     0
102
RTVSPropertyOp4
 70
     0
102
RTVSPropertyOp5
 70
     0
102
RTVSPropertyOp6
 70
     0
102
RTVSPropertyOp7
 70
     0
102
RTVSPropertyOp8
 70
     0
102
RTVSPropertyOp9
 70
     0
102
RTVSPropertyOp10
 70
     0
102
RTVSPropertyOp11
 70
     0
102
RTVSPropertyOp12
 70
     0
102
RTVSPropertyOp13
 70
     0
102
RTVSPropertyOp14
 70
     2
102
RTVSPropertyOp15
 70
     0
102
RTVSPropertyOp16
 70
     0
102
RTVSPropertyOp17
 70
     0
102
RTVSPropertyOp18
 70
     0
102
RTVSPropertyOp19
 70
     0
102
RTVSPropertyOp20
 70
     0
102
RTVSPropertyOp21
 70
     0
102
RTVSPropertyOp22
 70
     0
102
RTVSPropertyOp23
 70
     0
102
RTVSPropertyOp24
 70
     0
102
RTVSPropertyOp25
 70
     0
102
RTVSPropertyOp26
 70
     0
102
RTVSPropertyOp27
 70
     0
  0
XRECORD
  5
1F73
102
{ACAD_REACTORS
330
1F72
102
}
330
1F72
100
AcDbXrecord
280
     1
102
RTVSPropertyOp0
 70
     0
102
RTVSPropertyOp1
 70
     0
102
RTVSPropertyOp2
 70
     0
102
RTVSPropertyOp3
 70
     0
102
RTVSPropertyOp4
 70
     0
102
RTVSPropertyOp5
 70
     0
102
RTVSPropertyOp6
 70
     0
102
RTVSPropertyOp7
 70
     0
102
RTVSPropertyOp8
 70
     0
102
RTVSPropertyOp9
 70
     0
102
RTVSPropertyOp10
 70
     0
102
RTVSPropertyOp11
 70
     0
102
RTVSPropertyOp12
 70
     0
102
RTVSPropertyOp13
 70
     0
102
RTVSPropertyOp14
 70
     2
102
RTVSPropertyOp15
 70
     0
102
RTVSPropertyOp16
 70
     0
102
RTVSPropertyOp17
 70
     0
102
RTVSPropertyOp18
 70
     0
102
RTVSPropertyOp19
 70
     0
102
RTVSPropertyOp20
 70
     0
102
RTVSPropertyOp21
 70
     0
102
RTVSPropertyOp22
 70
     0
102
RTVSPropertyOp23
 70
     0
102
RTVSPropertyOp24
 70
     0
102
RTVSPropertyOp25
 70
     0
102
RTVSPropertyOp26
 70
     0
102
RTVSPropertyOp27
 70
     0
  0
XRECORD
  5
1F76
102
{ACAD_REACTORS
330
1F75
102
}
330
1F75
100
AcDbXrecord
280
     1
102
RTVSPropertyOp0
 70
     0
102
RTVSPropertyOp1
 70
     0
102
RTVSPropertyOp2
 70
     0
102
RTVSPropertyOp3
 70
     0
102
RTVSPropertyOp4
 70
     0
102
RTVSPropertyOp5
 70
     0
102
RTVSPropertyOp6
 70
     0
102
RTVSPropertyOp7
 70
     0
102
RTVSPropertyOp8
 70
     0
102
RTVSPropertyOp9
 70
     0
102
RTVSPropertyOp10
 70
     0
102
RTVSPropertyOp11
 70
     0
102
RTVSPropertyOp12
 70
     0
102
RTVSPropertyOp13
 70
     0
102
RTVSPropertyOp14
 70
     2
102
RTVSPropertyOp15
 70
     0
102
RTVSPropertyOp16
 70
     0
102
RTVSPropertyOp17
 70
     0
102
RTVSPropertyOp18
 70
     0
102
RTVSPropertyOp19
 70
     0
102
RTVSPropertyOp20
 70
     0
102
RTVSPropertyOp21
 70
     0
102
RTVSPropertyOp22
 70
     0
102
RTVSPropertyOp23
 70
     0
102
RTVSPropertyOp24
 70
     0
102
RTVSPropertyOp25
 70
     0
102
RTVSPropertyOp26
 70
     0
102
RTVSPropertyOp27
 70
     0
  0
ENDSEC
  0
EOF
